  0
SECTION
  2
HEADER
  9
$ACADVER
  1
AC1027
  9
$ACADMAINTVER
 70
   125
  9
$DWGCODEPAGE
  3
ANSI_1252
  9
$LASTSAVEDBY
  1
Guazzelli
  9
$REQUIREDVERSIONS
160
                 0
  9
$INSBASE
 10
0.0
 20
0.0
 30
0.0
  9
$EXTMIN
 10
10.68866093165231
 20
13.1511885798844
 30
-0.7059775136920603
  9
$EXTMAX
 10
253.9228654363725
 20
155.6148420339391
 30
34.50000053303029
  9
$LIMMIN
 10
0.0
 20
0.0
  9
$LIMMAX
 10
420.0
 20
297.0
  9
$ORTHOMODE
 70
     0
  9
$REGENMODE
 70
     1
  9
$FILLMODE
 70
     1
  9
$QTEXTMODE
 70
     0
  9
$MIRRTEXT
 70
     0
  9
$LTSCALE
 40
1.0
  9
$ATTMODE
 70
     1
  9
$TEXTSIZE
 40
2.5
  9
$TRACEWID
 40
1.0
  9
$TEXTSTYLE
  7
Standard
  9
$CLAYER
  8
0
  9
$CELTYPE
  6
ByLayer
  9
$CECOLOR
 62
   256
  9
$CELTSCALE
 40
1.0
  9
$DISPSILH
 70
     0
  9
$DIMSCALE
 40
1.0
  9
$DIMASZ
 40
5.0
  9
$DIMEXO
 40
0.625
  9
$DIMDLI
 40
3.75
  9
$DIMRND
 40
0.0
  9
$DIMDLE
 40
0.0
  9
$DIMEXE
 40
1.25
  9
$DIMTP
 40
0.0
  9
$DIMTM
 40
0.0
  9
$DIMTXT
 40
9.0
  9
$DIMCEN
 40
2.5
  9
$DIMTSZ
 40
0.0
  9
$DIMTOL
 70
     0
  9
$DIMLIM
 70
     0
  9
$DIMTIH
 70
     1
  9
$DIMTOH
 70
     1
  9
$DIMSE1
 70
     0
  9
$DIMSE2
 70
     0
  9
$DIMTAD
 70
     1
  9
$DIMZIN
 70
     8
  9
$DIMBLK
  1

  9
$DIMASO
 70
     1
  9
$DIMSHO
 70
     1
  9
$DIMPOST
  1

  9
$DIMAPOST
  1

  9
$DIMALT
 70
     0
  9
$DIMALTD
 70
     3
  9
$DIMALTF
 40
0.03937007874016
  9
$DIMLFAC
 40
1.0
  9
$DIMTOFL
 70
     1
  9
$DIMTVP
 40
0.0
  9
$DIMTIX
 70
     0
  9
$DIMSOXD
 70
     0
  9
$DIMSAH
 70
     0
  9
$DIMBLK1
  1

  9
$DIMBLK2
  1

  9
$DIMSTYLE
  2
DOKA
  9
$DIMCLRD
 70
     0
  9
$DIMCLRE
 70
     0
  9
$DIMCLRT
 70
     0
  9
$DIMTFAC
 40
1.0
  9
$DIMGAP
 40
1.5
  9
$DIMJUST
 70
     0
  9
$DIMSD1
 70
     0
  9
$DIMSD2
 70
     0
  9
$DIMTOLJ
 70
     0
  9
$DIMTZIN
 70
     8
  9
$DIMALTZ
 70
     0
  9
$DIMALTTZ
 70
     0
  9
$DIMUPT
 70
     0
  9
$DIMDEC
 70
     0
  9
$DIMTDEC
 70
     0
  9
$DIMALTU
 70
     2
  9
$DIMALTTD
 70
     3
  9
$DIMTXSTY
  7
Standard
  9
$DIMAUNIT
 70
     0
  9
$DIMADEC
 70
     0
  9
$DIMALTRND
 40
0.0
  9
$DIMAZIN
 70
     0
  9
$DIMDSEP
 70
    44
  9
$DIMATFIT
 70
     3
  9
$DIMFRAC
 70
     0
  9
$DIMLDRBLK
  1

  9
$DIMLUNIT
 70
     2
  9
$DIMLWD
 70
    -2
  9
$DIMLWE
 70
    -2
  9
$DIMTMOVE
 70
     0
  9
$DIMFXL
 40
1.0
  9
$DIMFXLON
 70
     0
  9
$DIMJOGANG
 40
0.7853981633974483
  9
$DIMTFILL
 70
     0
  9
$DIMTFILLCLR
 70
     0
  9
$DIMARCSYM
 70
     0
  9
$DIMLTYPE
  6

  9
$DIMLTEX1
  6

  9
$DIMLTEX2
  6

  9
$DIMTXTDIRECTION
 70
     0
  9
$LUNITS
 70
     2
  9
$LUPREC
 70
     4
  9
$SKETCHINC
 40
1.0
  9
$FILLETRAD
 40
3.0
  9
$AUNITS
 70
     0
  9
$AUPREC
 70
     0
  9
$MENU
  1
.
  9
$ELEVATION
 40
0.0
  9
$PELEVATION
 40
0.0
  9
$THICKNESS
 40
0.0
  9
$LIMCHECK
 70
     0
  9
$CHAMFERA
 40
0.0
  9
$CHAMFERB
 40
0.0
  9
$CHAMFERC
 40
0.0
  9
$CHAMFERD
 40
0.0
  9
$SKPOLY
 70
     0
  9
$TDCREATE
 40
2459327.731759260
  9
$TDUCREATE
 40
2459327.856759260
  9
$TDUPDATE
 40
2459328.510405093
  9
$TDUUPDATE
 40
2459328.635405093
  9
$TDINDWG
 40
0.0855324074
  9
$TDUSRTIMER
 40
0.0855324074
  9
$USRTIMER
 70
     1
  9
$ANGBASE
 50
0.0
  9
$ANGDIR
 70
     0
  9
$PDMODE
 70
     0
  9
$PDSIZE
 40
0.0
  9
$PLINEWID
 40
0.0
  9
$SPLFRAME
 70
     0
  9
$SPLINETYPE
 70
     6
  9
$SPLINESEGS
 70
     8
  9
$HANDSEED
  5
EDA
  9
$SURFTAB1
 70
     6
  9
$SURFTAB2
 70
     6
  9
$SURFTYPE
 70
     6
  9
$SURFU
 70
     6
  9
$SURFV
 70
     6
  9
$UCSBASE
  2

  9
$UCSNAME
  2

  9
$UCSORG
 10
0.0
 20
0.0
 30
0.0
  9
$UCSXDIR
 10
1.0
 20
0.0
 30
0.0
  9
$UCSYDIR
 10
0.0
 20
1.0
 30
0.0
  9
$UCSORTHOREF
  2

  9
$UCSORTHOVIEW
 70
     0
  9
$UCSORGTOP
 10
0.0
 20
0.0
 30
0.0
  9
$UCSORGBOTTOM
 10
0.0
 20
0.0
 30
0.0
  9
$UCSORGLEFT
 10
0.0
 20
0.0
 30
0.0
  9
$UCSORGRIGHT
 10
0.0
 20
0.0
 30
0.0
  9
$UCSORGFRONT
 10
0.0
 20
0.0
 30
0.0
  9
$UCSORGBACK
 10
0.0
 20
0.0
 30
0.0
  9
$PUCSBASE
  2

  9
$PUCSNAME
  2

  9
$PUCSORG
 10
0.0
 20
0.0
 30
0.0
  9
$PUCSXDIR
 10
1.0
 20
0.0
 30
0.0
  9
$PUCSYDIR
 10
0.0
 20
1.0
 30
0.0
  9
$PUCSORTHOREF
  2

  9
$PUCSORTHOVIEW
 70
     0
  9
$PUCSORGTOP
 10
0.0
 20
0.0
 30
0.0
  9
$PUCSORGBOTTOM
 10
0.0
 20
0.0
 30
0.0
  9
$PUCSORGLEFT
 10
0.0
 20
0.0
 30
0.0
  9
$PUCSORGRIGHT
 10
0.0
 20
0.0
 30
0.0
  9
$PUCSORGFRONT
 10
0.0
 20
0.0
 30
0.0
  9
$PUCSORGBACK
 10
0.0
 20
0.0
 30
0.0
  9
$USERI1
 70
     0
  9
$USERI2
 70
     0
  9
$USERI3
 70
     0
  9
$USERI4
 70
     0
  9
$USERI5
 70
     0
  9
$USERR1
 40
0.0
  9
$USERR2
 40
0.0
  9
$USERR3
 40
0.0
  9
$USERR4
 40
0.0
  9
$USERR5
 40
0.0
  9
$WORLDVIEW
 70
     1
  9
$SHADEDGE
 70
     3
  9
$SHADEDIF
 70
    70
  9
$TILEMODE
 70
     1
  9
$MAXACTVP
 70
    64
  9
$PINSBASE
 10
0.0
 20
0.0
 30
0.0
  9
$PLIMCHECK
 70
     0
  9
$PEXTMIN
 10
0.0
 20
0.0
 30
0.0
  9
$PEXTMAX
 10
0.0
 20
0.0
 30
0.0
  9
$PLIMMIN
 10
0.0
 20
0.0
  9
$PLIMMAX
 10
12.0
 20
9.0
  9
$UNITMODE
 70
     0
  9
$VISRETAIN
 70
     1
  9
$PLINEGEN
 70
     0
  9
$PSLTSCALE
 70
     1
  9
$TREEDEPTH
 70
  3020
  9
$CMLSTYLE
  2
Standard
  9
$CMLJUST
 70
     0
  9
$CMLSCALE
 40
20.0
  9
$PROXYGRAPHICS
 70
     1
  9
$MEASUREMENT
 70
     1
  9
$CELWEIGHT
370
    -1
  9
$ENDCAPS
280
     0
  9
$JOINSTYLE
280
     0
  9
$LWDISPLAY
290
     0
  9
$INSUNITS
 70
     4
  9
$HYPERLINKBASE
  1

  9
$STYLESHEET
  1

  9
$XEDIT
290
     1
  9
$CEPSNTYPE
380
     0
  9
$PSTYLEMODE
290
     1
  9
$FINGERPRINTGUID
  2
{55EE6DB4-83D3-E848-930D-E4F82C833E3E}
  9
$VERSIONGUID
  2
{CD0FAE9F-0A08-5247-9CD0-FFA533371F3C}
  9
$EXTNAMES
290
     1
  9
$PSVPSCALE
 40
0.0
  9
$OLESTARTUP
290
     0
  9
$SORTENTS
280
   127
  9
$INDEXCTL
280
     0
  9
$HIDETEXT
280
     1
  9
$XCLIPFRAME
280
     2
  9
$HALOGAP
280
     0
  9
$OBSCOLOR
 70
   257
  9
$OBSLTYPE
280
     0
  9
$INTERSECTIONDISPLAY
280
     0
  9
$INTERSECTIONCOLOR
 70
   257
  9
$DIMASSOC
280
     2
  9
$PROJECTNAME
  1

  9
$CAMERADISPLAY
290
     0
  9
$LENSLENGTH
 40
50.0
  9
$CAMERAHEIGHT
 40
0.0
  9
$STEPSPERSEC
 40
2.0
  9
$STEPSIZE
 40
6.0
  9
$3DDWFPREC
 40
2.0
  9
$PSOLWIDTH
 40
5.0
  9
$PSOLHEIGHT
 40
80.0
  9
$LOFTANG1
 40
1.570796326794896
  9
$LOFTANG2
 40
1.570796326794896
  9
$LOFTMAG1
 40
0.0
  9
$LOFTMAG2
 40
0.0
  9
$LOFTPARAM
 70
     7
  9
$LOFTNORMALS
280
     1
  9
$LATITUDE
 40
37.795
  9
$LONGITUDE
 40
-122.394
  9
$NORTHDIRECTION
 40
0.0
  9
$TIMEZONE
 70
 -8000
  9
$LIGHTGLYPHDISPLAY
280
     1
  9
$TILEMODELIGHTSYNCH
280
     1
  9
$CMATERIAL
347
EC
  9
$SOLIDHIST
280
     0
  9
$SHOWHIST
280
     1
  9
$DWFFRAME
280
     2
  9
$DGNFRAME
280
     0
  9
$REALWORLDSCALE
290
     1
  9
$INTERFERECOLOR
 62
     1
  9
$INTERFEREOBJVS
345
F9
  9
$INTERFEREVPVS
346
F6
  9
$CSHADOW
280
     0
  9
$SHADOWPLANELOCATION
 40
0.0
  0
ENDSEC
  0
SECTION
  2
CLASSES
  0
CLASS
  1
ACDBDICTIONARYWDFLT
  2
AcDbDictionaryWithDefault
  3
ObjectDBX Classes
 90
        0
 91
        1
280
     0
281
     0
  0
CLASS
  1
DICTIONARYVAR
  2
AcDbDictionaryVar
  3
ObjectDBX Classes
 90
        0
 91
       13
280
     0
281
     0
  0
CLASS
  1
TABLESTYLE
  2
AcDbTableStyle
  3
ObjectDBX Classes
 90
     4095
 91
        1
280
     0
281
     0
  0
CLASS
  1
MATERIAL
  2
AcDbMaterial
  3
ObjectDBX Classes
 90
     1153
 91
        3
280
     0
281
     0
  0
CLASS
  1
VISUALSTYLE
  2
AcDbVisualStyle
  3
ObjectDBX Classes
 90
     4095
 91
       24
280
     0
281
     0
  0
CLASS
  1
SCALE
  2
AcDbScale
  3
ObjectDBX Classes
 90
     1153
 91
       17
280
     0
281
     0
  0
CLASS
  1
MLEADERSTYLE
  2
AcDbMLeaderStyle
  3
ACDB_MLEADERSTYLE_CLASS
 90
     4095
 91
        2
280
     0
281
     0
  0
CLASS
  1
CELLSTYLEMAP
  2
AcDbCellStyleMap
  3
ObjectDBX Classes
 90
     1152
 91
        3
280
     0
281
     0
  0
CLASS
  1
EXACXREFPANELOBJECT
  2
ExAcXREFPanelObject
  3
EXAC_ESW
 90
     1025
 91
        0
280
     0
281
     0
  0
CLASS
  1
NPOCOLLECTION
  2
AcDbImpNonPersistentObjectsCollection
  3
ObjectDBX Classes
 90
     1153
 91
        0
280
     0
281
     0
  0
CLASS
  1
LAYER_INDEX
  2
AcDbLayerIndex
  3
ObjectDBX Classes
 90
        0
 91
        0
280
     0
281
     0
  0
CLASS
  1
SPATIAL_INDEX
  2
AcDbSpatialIndex
  3
ObjectDBX Classes
 90
        0
 91
        0
280
     0
281
     0
  0
CLASS
  1
IDBUFFER
  2
AcDbIdBuffer
  3
ObjectDBX Classes
 90
        0
 91
        0
280
     0
281
     0
  0
CLASS
  1
ACDBSECTIONVIEWSTYLE
  2
AcDbSectionViewStyle
  3
ObjectDBX Classes
 90
     1025
 91
        1
280
     0
281
     0
  0
CLASS
  1
ACDBDETAILVIEWSTYLE
  2
AcDbDetailViewStyle
  3
ObjectDBX Classes
 90
     1025
 91
        1
280
     0
281
     0
  0
CLASS
  1
SORTENTSTABLE
  2
AcDbSortentsTable
  3
ObjectDBX Classes
 90
        0
 91
        1
280
     0
281
     0
  0
CLASS
  1
ACDB_ALDIMOBJECTCONTEXTDATA_CLASS
  2
AcDbAlignedDimensionObjectContextData
  3
ObjectDBX Classes
 90
     1153
 91
        0
280
     0
281
     0
  0
CLASS
  1
DIMASSOC
  2
AcDbDimAssoc
  3
"AcDbDimAssoc|Product Desc:     AcDim ARX App For Dimension|Company:          Autodesk, Inc.|WEB Address:      www.autodesk.com"
 90
        0
 91
        1
280
     0
281
     0
  0
CLASS
  1
PLOTSETTINGS
  2
AcDbPlotSettings
  3
ObjectDBX Classes
 90
        0
 91
        1
280
     0
281
     0
  0
CLASS
  1
ACDBASSOCNETWORK
  2
AcDbAssocNetwork
  3
ObjectDBX Classes
 90
     1025
 91
        2
280
     0
281
     0
  0
CLASS
  1
ACDBASSOCACTION
  2
AcDbAssocAction
  3
ObjectDBX Classes
 90
     1025
 91
        1
280
     0
281
     0
  0
CLASS
  1
AcDbCenterLineActionBody
  2
AcDbCenterLineActionBody
  3
AcDbSmartCenter
 90
     1153
 91
        1
280
     0
281
     0
  0
CLASS
  1
ACDBASSOCEDGEACTIONPARAM
  2
AcDbAssocEdgeActionParam
  3
ObjectDBX Classes
 90
     1025
 91
        2
280
     0
281
     0
  0
CLASS
  1
ACDBASSOCGEOMDEPENDENCY
  2
AcDbAssocGeomDependency
  3
ObjectDBX Classes
 90
     1025
 91
        0
280
     0
281
     0
  0
CLASS
  1
ACDBASSOCDEPENDENCY
  2
AcDbAssocDependency
  3
ObjectDBX Classes
 90
     1025
 91
        1
280
     0
281
     0
  0
ENDSEC
  0
SECTION
  2
TABLES
  0
TABLE
  2
VPORT
  5
8
330
0
100
AcDbSymbolTable
 70
     1
1001
ACAD
1000
DbSaveVer
1071
      224
  0
VPORT
  5
EA
330
8
100
AcDbSymbolTableRecord
100
AcDbViewportTableRecord
  2
*Active
 70
     0
 10
0.0
 20
0.0
 11
1.0
 21
1.0
 12
222.0388600140235
 22
86.84824261350422
 13
0.0
 23
0.0
 14
10.0
 24
10.0
 15
10.0
 25
10.0
 16
0.0
 26
0.0
 36
1.0
 17
0.0
 27
0.0
 37
0.0
 40
215.7135086748271
 41
2.02496714848883
 42
50.0
 43
0.0
 44
0.0
 50
0.0
 51
0.0
 71
     0
 72
  1000
 73
     1
 74
     3
 75
     0
 76
     1
 77
     0
 78
     0
281
     0
 65
     1
110
0.0
120
0.0
130
0.0
111
1.0
121
0.0
131
0.0
112
0.0
122
1.0
132
0.0
 79
     0
146
0.0
348
F5
 60
     3
 61
     5
292
     1
282
     1
141
0.0
142
0.0
 63
   250
421
  3355443
1001
ACAD_NAV_VCDISPLAY
1070
     3
  0
ENDTAB
  0
TABLE
  2
LTYPE
  5
5
330
0
100
AcDbSymbolTable
 70
     2
  0
LTYPE
  5
14
330
5
100
AcDbSymbolTableRecord
100
AcDbLinetypeTableRecord
  2
ByBlock
 70
     0
  3

 72
    65
 73
     0
 40
0.0
  0
LTYPE
  5
15
330
5
100
AcDbSymbolTableRecord
100
AcDbLinetypeTableRecord
  2
ByLayer
 70
     0
  3

 72
    65
 73
     0
 40
0.0
  0
LTYPE
  5
16
330
5
100
AcDbSymbolTableRecord
100
AcDbLinetypeTableRecord
  2
Continuous
 70
     0
  3
Solid line
 72
    65
 73
     0
 40
0.0
  0
LTYPE
  5
DE5
330
5
100
AcDbSymbolTableRecord
100
AcDbLinetypeTableRecord
  2
CENTER2
 70
     0
  3
Center (.5x) ___ _ ___ _ ___ _ ___ _ ___ _ ___
 72
    65
 73
     4
 40
28.575
 49
19.05
 74
     0
 49
-3.174999999999998
 74
     0
 49
3.174999999999998
 74
     0
 49
-3.174999999999998
 74
     0
  0
ENDTAB
  0
TABLE
  2
LAYER
  5
2
102
{ACAD_XDICTIONARY
360
1FF
102
}
330
0
100
AcDbSymbolTable
 70
     5
  0
LAYER
  5
10
102
{ACAD_XDICTIONARY
360
13C
102
}
330
2
100
AcDbSymbolTableRecord
100
AcDbLayerTableRecord
  2
0
 70
     0
 62
     7
  6
Continuous
370
    -3
390
F
347
EE
348
0
  0
LAYER
  5
2D2
330
2
100
AcDbSymbolTableRecord
100
AcDbLayerTableRecord
  2
Defpoints
 70
     0
 62
     7
  6
Continuous
290
     0
370
    -3
390
F
347
EE
348
0
1001
AcAecLayerStandard
1000

1000

  0
LAYER
  5
2D3
330
2
100
AcDbSymbolTableRecord
100
AcDbLayerTableRecord
  2
Visible
 70
     0
 62
     7
  6
Continuous
370
    50
390
F
347
EE
348
0
  0
LAYER
  5
2D4
330
2
100
AcDbSymbolTableRecord
100
AcDbLayerTableRecord
  2
Dimensions
 70
     0
 62
     8
  6
Continuous
370
    25
390
F
347
EE
348
0
  0
LAYER
  5
958
330
2
100
AcDbSymbolTableRecord
100
AcDbLayerTableRecord
  2
Visible Narrow
 70
     0
 62
     7
  6
Continuous
370
    35
390
F
347
EE
348
0
  0
ENDTAB
  0
TABLE
  2
STYLE
  5
3
330
0
100
AcDbSymbolTable
 70
     2
  0
STYLE
  5
11
330
3
100
AcDbSymbolTableRecord
100
AcDbTextStyleTableRecord
  2
Standard
 70
     0
 40
0.0
 41
1.0
 50
0.0
 71
     0
 42
2.5
  3

  4

1001
ACAD
1000
Myriad Pro
1071
       34
  0
STYLE
  5
132
330
3
100
AcDbSymbolTableRecord
100
AcDbTextStyleTableRecord
  2
Annotative
 70
     0
 40
0.0
 41
1.0
 50
0.0
 71
     0
 42
2.5
  3
arial.ttf
  4

1001
AcadAnnotative
1000
AnnotativeData
1002
{
1070
     1
1070
     1
1002
}
1001
ACAD
1000
Arial
1071
       34
  0
ENDTAB
  0
TABLE
  2
VIEW
  5
6
330
0
100
AcDbSymbolTable
 70
     1
  0
ENDTAB
  0
TABLE
  2
UCS
  5
7
330
0
100
AcDbSymbolTable
 70
     0
  0
ENDTAB
  0
TABLE
  2
APPID
  5
9
330
0
100
AcDbSymbolTable
 70
    19
  0
APPID
  5
12
330
9
100
AcDbSymbolTableRecord
100
AcDbRegAppTableRecord
  2
ACAD
 70
     0
  0
APPID
  5
9E
330
9
100
AcDbSymbolTableRecord
100
AcDbRegAppTableRecord
  2
ACAD_PSEXT
 70
     0
  0
APPID
  5
133
330
9
100
AcDbSymbolTableRecord
100
AcDbRegAppTableRecord
  2
AcadAnnoPO
 70
     0
  0
APPID
  5
134
330
9
100
AcDbSymbolTableRecord
100
AcDbRegAppTableRecord
  2
AcadAnnotative
 70
     0
  0
APPID
  5
135
330
9
100
AcDbSymbolTableRecord
100
AcDbRegAppTableRecord
  2
ACAD_DSTYLE_DIMJAG
 70
     0
  0
APPID
  5
136
330
9
100
AcDbSymbolTableRecord
100
AcDbRegAppTableRecord
  2
ACAD_DSTYLE_DIMTALN
 70
     0
  0
APPID
  5
165
330
9
100
AcDbSymbolTableRecord
100
AcDbRegAppTableRecord
  2
ACAD_MLEADERVER
 70
     0
  0
APPID
  5
217
330
9
100
AcDbSymbolTableRecord
100
AcDbRegAppTableRecord
  2
ACAD_NAV_VCDISPLAY
 70
     0
  0
APPID
  5
2D5
330
9
100
AcDbSymbolTableRecord
100
AcDbRegAppTableRecord
  2
AcAecLayerStandard
 70
     0
  0
APPID
  5
2D6
330
9
100
AcDbSymbolTableRecord
100
AcDbRegAppTableRecord
  2
ACAD_DSTYLE_DIMBREAK
 70
     0
  0
APPID
  5
2D7
330
9
100
AcDbSymbolTableRecord
100
AcDbRegAppTableRecord
  2
ACAD_VIEW_EDGE_ID
 70
     0
  0
APPID
  5
2D8
330
9
100
AcDbSymbolTableRecord
100
AcDbRegAppTableRecord
  2
ACAD_DIMASSOC_CALC_DIMLFAC
 70
     0
  0
APPID
  5
2D9
330
9
100
AcDbSymbolTableRecord
100
AcDbRegAppTableRecord
  2
ACAD_DIMASSOC_DIMLFAC
 70
     0
  0
APPID
  5
2DA
330
9
100
AcDbSymbolTableRecord
100
AcDbRegAppTableRecord
  2
ACAD_DIMASSOC_OVERRIDDEN_DIMLFAC
 70
     0
  0
APPID
  5
2DB
330
9
100
AcDbSymbolTableRecord
100
AcDbRegAppTableRecord
  2
ACAD_DSTYLE_DIMJAG_POSITION
 70
     0
  0
APPID
  5
4DF
330
9
100
AcDbSymbolTableRecord
100
AcDbRegAppTableRecord
  2
AcadAnnoMonitorAlertIconDisabled
 70
     0
  0
APPID
  5
4E0
330
9
100
AcDbSymbolTableRecord
100
AcDbRegAppTableRecord
  2
ACAD_EXEMPT_FROM_CAD_STANDARDS
 70
     0
  0
APPID
  5
517
330
9
100
AcDbSymbolTableRecord
100
AcDbRegAppTableRecord
  2
GradientColor1ACI
 70
     0
  0
APPID
  5
518
330
9
100
AcDbSymbolTableRecord
100
AcDbRegAppTableRecord
  2
GradientColor2ACI
 70
     0
  0
ENDTAB
  0
TABLE
  2
DIMSTYLE
  5
A
330
0
100
AcDbSymbolTable
 70
     4
100
AcDbDimStyleTable
 71
     3
340
54E
340
137
340
27
  0
DIMSTYLE
105
1B0
330
A
100
AcDbSymbolTableRecord
100
AcDbDimStyleTableRecord
  2
Standard
 70
     0
340
11
  0
DIMSTYLE
105
137
330
A
100
AcDbSymbolTableRecord
100
AcDbDimStyleTableRecord
  2
Annotative
 70
     0
 40
0.0
 41
2.5
 42
0.625
 43
3.75
 44
1.25
 73
     0
 74
     0
 77
     1
 78
     8
140
2.5
141
2.5
143
0.03937007874016
147
0.625
171
     3
172
     1
271
     2
272
     2
274
     3
278
    44
283
     0
284
     8
340
11
1001
AcadAnnotative
1000
AnnotativeData
1002
{
1070
     1
1070
     1
1002
}
1001
ACAD_DSTYLE_DIMJAG
1070
   388
1040
1.5
1001
ACAD_DSTYLE_DIMTALN
1070
   392
1070
     0
  0
DIMSTYLE
105
27
330
A
100
AcDbSymbolTableRecord
100
AcDbDimStyleTableRecord
  2
ISO-25
 70
     0
 41
2.5
 42
0.625
 43
3.75
 44
1.25
 73
     0
 74
     0
 77
     1
 78
     8
140
2.5
141
2.5
143
0.03937007874016
147
0.625
171
     3
172
     1
271
     2
272
     2
274
     3
278
    44
283
     0
284
     8
340
11
  0
DIMSTYLE
105
54E
102
{ACAD_REACTORS
330
3A6
330
6EB
330
3A4
330
3A5
330
3A3
330
3A7
102
}
330
A
100
AcDbSymbolTableRecord
100
AcDbDimStyleTableRecord
  2
DOKA
 70
     0
 41
5.0
 42
0.625
 43
3.75
 44
1.25
 77
     1
 78
     8
140
9.0
141
2.5
143
0.03937007874016
147
1.5
171
     3
172
     1
271
     0
272
     0
274
     3
278
    44
283
     0
284
     8
340
11
1001
ACAD_DSTYLE_DIMBREAK
1070
   391
1040
3.75
1001
ACAD_DSTYLE_DIMJAG
1070
   388
1040
1.5
1001
ACAD_DSTYLE_DIMTALN
1070
   392
1070
     0
  0
ENDTAB
  0
TABLE
  2
BLOCK_RECORD
  5
1
330
0
100
AcDbSymbolTable
 70
     8
  0
BLOCK_RECORD
  5
1F
102
{ACAD_XDICTIONARY
360
1CE
102
}
330
1
100
AcDbSymbolTableRecord
100
AcDbBlockTableRecord
  2
*Model_Space
340
22
 70
     0
280
     1
281
     0
  0
BLOCK_RECORD
  5
D2
330
1
100
AcDbSymbolTableRecord
100
AcDbBlockTableRecord
  2
*Paper_Space
340
D3
 70
     0
280
     1
281
     0
  0
BLOCK_RECORD
  5
D6
330
1
100
AcDbSymbolTableRecord
100
AcDbBlockTableRecord
  2
*Paper_Space0
340
D7
 70
     0
280
     1
281
     0
  0
BLOCK_RECORD
  5
464
330
1
100
AcDbSymbolTableRecord
100
AcDbBlockTableRecord
  2
*D1
340
0
 70
     0
280
     1
281
     0
  0
BLOCK_RECORD
  5
470
330
1
100
AcDbSymbolTableRecord
100
AcDbBlockTableRecord
  2
*D2
340
0
 70
     0
280
     1
281
     0
  0
BLOCK_RECORD
  5
47C
330
1
100
AcDbSymbolTableRecord
100
AcDbBlockTableRecord
  2
*D3
340
0
 70
     0
280
     1
281
     0
  0
BLOCK_RECORD
  5
488
330
1
100
AcDbSymbolTableRecord
100
AcDbBlockTableRecord
  2
*D4
340
0
 70
     0
280
     1
281
     0
  0
BLOCK_RECORD
  5
494
330
1
100
AcDbSymbolTableRecord
100
AcDbBlockTableRecord
  2
*D5
340
0
 70
     0
280
     1
281
     0
  0
BLOCK_RECORD
  5
6EC
330
1
100
AcDbSymbolTableRecord
100
AcDbBlockTableRecord
  2
*D6
340
0
 70
     0
280
     1
281
     0
  0
BLOCK_RECORD
  5
DE1
330
1
100
AcDbSymbolTableRecord
100
AcDbBlockTableRecord
  2
*U7
340
0
102
{BLKREFS
331
DE4
102
}
 70
     0
280
     1
281
     0
  0
ENDTAB
  0
ENDSEC
  0
SECTION
  2
BLOCKS
  0
BLOCK
  5
20
330
1F
100
AcDbEntity
  8
0
100
AcDbBlockBegin
  2
*Model_Space
 70
     0
 10
0.0
 20
0.0
 30
0.0
  3
*Model_Space
  1

  0
ENDBLK
  5
21
330
1F
100
AcDbEntity
  8
0
100
AcDbBlockEnd
  0
BLOCK
  5
D4
330
D2
100
AcDbEntity
 67
     1
  8
0
100
AcDbBlockBegin
  2
*Paper_Space
 70
     0
 10
0.0
 20
0.0
 30
0.0
  3
*Paper_Space
  1

  0
ENDBLK
  5
D5
330
D2
100
AcDbEntity
 67
     1
  8
0
100
AcDbBlockEnd
  0
BLOCK
  5
D8
330
D6
100
AcDbEntity
 67
     1
  8
0
100
AcDbBlockBegin
  2
*Paper_Space0
 70
     0
 10
0.0
 20
0.0
 30
0.0
  3
*Paper_Space0
  1

  0
ENDBLK
  5
D9
330
D6
100
AcDbEntity
 67
     1
  8
0
100
AcDbBlockEnd
  0
BLOCK
  5
465
330
464
100
AcDbEntity
  8
0
100
AcDbBlockBegin
  2
*D1
 70
     1
 10
0.0
 20
0.0
 30
0.0
  3
*D1
  1

  0
LINE
  5
BA2
330
464
100
AcDbEntity
  8
Dimensions
 62
     0
440
 16777216
370
    -2
100
AcDbLine
 10
79.80747195203793
 20
124.3609796511498
 30
0.0
 11
79.80747195203793
 21
145.0310141407641
 31
0.0
  0
LINE
  5
BA3
330
464
100
AcDbEntity
  8
Dimensions
 62
     0
440
 16777216
370
    -2
100
AcDbLine
 10
149.4074709520379
 20
124.2833456511498
 30
0.0
 11
149.4074709520379
 21
145.0310141407641
 31
0.0
  0
LINE
  5
BA4
330
464
100
AcDbEntity
  8
Dimensions
 62
     0
440
 16777216
370
    -2
100
AcDbLine
 10
84.80747195203793
 20
143.7810141407641
 30
0.0
 11
144.4074709520379
 21
143.7810141407641
 31
0.0
  0
SOLID
  5
BA5
330
464
100
AcDbEntity
  8
Dimensions
 62
     0
440
 16777216
100
AcDbTrace
 10
84.80747195203793
 20
144.6143474740974
 30
0.0
 11
84.80747195203793
 21
142.9476808074307
 31
0.0
 12
79.80747195203793
 22
143.7810141407641
 32
0.0
 13
79.80747195203793
 23
143.7810141407641
 33
0.0
  0
SOLID
  5
BA6
330
464
100
AcDbEntity
  8
Dimensions
 62
     0
440
 16777216
100
AcDbTrace
 10
144.4074709520379
 20
144.6143474740974
 30
0.0
 11
144.4074709520379
 21
142.9476808074307
 31
0.0
 12
149.4074709520379
 22
143.7810141407641
 32
0.0
 13
149.4074709520379
 23
143.7810141407641
 33
0.0
  0
MTEXT
  5
BA7
330
464
100
AcDbEntity
  8
Dimensions
 62
     0
440
 16777216
100
AcDbMText
 10
114.6074714520379
 20
149.2068301645029
 30
0.0
 40
7.0
 41
0.0
 46
0.0
 71
     5
 72
     1
  1
%%C70
 73
     1
 44
1.0
  0
POINT
  5
BA8
330
464
100
AcDbEntity
  8
Defpoints
 62
     0
440
 16777216
100
AcDbPoint
 10
79.80747195203793
 20
123.7359796511498
 30
0.0
  0
POINT
  5
BA9
330
464
100
AcDbEntity
  8
Defpoints
 62
     0
440
 16777216
100
AcDbPoint
 10
149.4074709520379
 20
123.6583456511498
 30
0.0
  0
POINT
  5
BAA
330
464
100
AcDbEntity
  8
Defpoints
 62
     0
440
 16777216
100
AcDbPoint
 10
149.4074709520379
 20
143.7810141407641
 30
0.0
  0
ENDBLK
  5
466
330
464
100
AcDbEntity
  8
0
100
AcDbBlockEnd
  0
BLOCK
  5
471
330
470
100
AcDbEntity
  8
0
100
AcDbBlockBegin
  2
*D2
 70
     1
 10
0.0
 20
0.0
 30
0.0
  3
*D2
  1

  0
LINE
  5
EA8
330
470
100
AcDbEntity
  8
Dimensions
 62
     0
440
 16777216
370
    -2
100
AcDbLine
 10
115.2328349520379
 20
129.2361776511498
 30
0.0
 11
219.1813472769036
 21
129.2361776511498
 31
0.0
  0
LINE
  5
EA9
330
470
100
AcDbEntity
  8
Dimensions
 62
     0
440
 16777216
370
    -2
100
AcDbLine
 10
137.632470952038
 20
71.65834465114983
 30
0.0
 11
219.1813472769036
 21
71.65834465114985
 31
0.0
  0
LINE
  5
EAA
330
470
100
AcDbEntity
  8
Dimensions
 62
     0
440
 16777216
370
    -2
100
AcDbLine
 10
217.9313472769036
 20
124.2361776511498
 30
0.0
 11
217.9313472769036
 21
105.7494112351435
 31
0.0
  0
LINE
  5
EAB
330
470
100
AcDbEntity
  8
Dimensions
 62
     0
440
 16777216
370
    -2
100
AcDbLine
 10
217.9313472769036
 20
76.65834465114985
 30
0.0
 11
217.9313472769036
 21
95.63516791170142
 31
0.0
  0
SOLID
  5
EAC
330
470
100
AcDbEntity
  8
Dimensions
 62
     0
440
 16777216
100
AcDbTrace
 10
217.0980139435703
 20
124.2361776511498
 30
0.0
 11
218.764680610237
 21
124.2361776511498
 31
0.0
 12
217.9313472769036
 22
129.2361776511498
 32
0.0
 13
217.9313472769036
 23
129.2361776511498
 33
0.0
  0
SOLID
  5
EAD
330
470
100
AcDbEntity
  8
Dimensions
 62
     0
440
 16777216
100
AcDbTrace
 10
217.0980139435703
 20
76.65834465114985
 30
0.0
 11
218.764680610237
 21
76.65834465114985
 31
0.0
 12
217.9313472769036
 22
71.65834465114985
 32
0.0
 13
217.9313472769036
 23
71.65834465114985
 33
0.0
  0
MTEXT
  5
EAE
330
470
100
AcDbEntity
  8
Dimensions
 62
     0
440
 16777216
100
AcDbMText
 10
217.9313472769036
 20
100.6922895734224
 30
0.0
 40
7.0
 41
0.0
 46
0.0
 71
     5
 72
     1
  1
58 a 73
 73
     1
 44
1.0
  0
POINT
  5
EAF
330
470
100
AcDbEntity
  8
Defpoints
 62
     0
440
 16777216
100
AcDbPoint
 10
114.6078349520379
 20
129.2361776511498
 30
0.0
  0
POINT
  5
EB0
330
470
100
AcDbEntity
  8
Defpoints
 62
     0
440
 16777216
100
AcDbPoint
 10
137.007470952038
 20
71.65834465114983
 30
0.0
  0
POINT
  5
EB1
330
470
100
AcDbEntity
  8
Defpoints
 62
     0
440
 16777216
100
AcDbPoint
 10
217.9313472769036
 20
71.65834465114985
 30
0.0
  0
ENDBLK
  5
472
330
470
100
AcDbEntity
  8
0
100
AcDbBlockEnd
  0
BLOCK
  5
47D
330
47C
100
AcDbEntity
  8
0
100
AcDbBlockBegin
  2
*D3
 70
     1
 10
0.0
 20
0.0
 30
0.0
  3
*D3
  1

  0
LINE
  5
EB2
330
47C
100
AcDbEntity
  8
Dimensions
 62
     0
440
 16777216
370
    -2
100
AcDbLine
 10
149.732471952038
 20
106.6583446511498
 30
0.0
 11
186.0379658056067
 21
106.6583446511498
 31
0.0
  0
LINE
  5
EB3
330
47C
100
AcDbEntity
  8
Dimensions
 62
     0
440
 16777216
370
    -2
100
AcDbLine
 10
137.632470952038
 20
71.65834465114983
 30
0.0
 11
186.0379658056067
 21
71.65834465114985
 31
0.0
  0
LINE
  5
EB4
330
47C
100
AcDbEntity
  8
Dimensions
 62
     0
440
 16777216
370
    -2
100
AcDbLine
 10
184.7879658056067
 20
101.6583446511498
 30
0.0
 11
184.7879658056067
 21
94.21546631287093
 31
0.0
  0
LINE
  5
EB5
330
47C
100
AcDbEntity
  8
Dimensions
 62
     0
440
 16777216
370
    -2
100
AcDbLine
 10
184.7879658056067
 20
76.65834465114985
 30
0.0
 11
184.7879658056067
 21
84.10122298942878
 31
0.0
  0
SOLID
  5
EB6
330
47C
100
AcDbEntity
  8
Dimensions
 62
     0
440
 16777216
100
AcDbTrace
 10
183.9546324722734
 20
101.6583446511498
 30
0.0
 11
185.6212991389401
 21
101.6583446511498
 31
0.0
 12
184.7879658056067
 22
106.6583446511498
 32
0.0
 13
184.7879658056067
 23
106.6583446511498
 33
0.0
  0
SOLID
  5
EB7
330
47C
100
AcDbEntity
  8
Dimensions
 62
     0
440
 16777216
100
AcDbTrace
 10
183.9546324722734
 20
76.65834465114985
 30
0.0
 11
185.6212991389401
 21
76.65834465114985
 31
0.0
 12
184.7879658056067
 22
71.65834465114985
 32
0.0
 13
184.7879658056067
 23
71.65834465114985
 33
0.0
  0
MTEXT
  5
EB8
330
47C
100
AcDbEntity
  8
Dimensions
 62
     0
440
 16777216
100
AcDbMText
 10
184.7879658056067
 20
89.15834465114979
 30
0.0
 40
7.0
 41
0.0
 46
0.0
 71
     5
 72
     1
  1
38 a 50
 73
     1
 44
1.0
  0
POINT
  5
EB9
330
47C
100
AcDbEntity
  8
Defpoints
 62
     0
440
 16777216
100
AcDbPoint
 10
149.1074719520379
 20
106.6583446511498
 30
0.0
  0
POINT
  5
EBA
330
47C
100
AcDbEntity
  8
Defpoints
 62
     0
440
 16777216
100
AcDbPoint
 10
137.007470952038
 20
71.65834465114983
 30
0.0
  0
POINT
  5
EBB
330
47C
100
AcDbEntity
  8
Defpoints
 62
     0
440
 16777216
100
AcDbPoint
 10
184.7879658056067
 20
71.65834465114985
 30
0.0
  0
ENDBLK
  5
47E
330
47C
100
AcDbEntity
  8
0
100
AcDbBlockEnd
  0
BLOCK
  5
489
330
488
100
AcDbEntity
  8
0
100
AcDbBlockBegin
  2
*D4
 70
     1
 10
0.0
 20
0.0
 30
0.0
  3
*D4
  1

  0
LINE
  5
BBF
330
488
100
AcDbEntity
  8
Dimensions
 62
     0
440
 16777216
370
    -2
100
AcDbLine
 10
90.79597195203794
 20
72.44484565114982
 30
0.0
 11
90.79597195203794
 21
42.11144352840242
 31
0.0
  0
LINE
  5
BC0
330
488
100
AcDbEntity
  8
Dimensions
 62
     0
440
 16777216
370
    -2
100
AcDbLine
 10
138.4189719520379
 20
72.44484565114982
 30
0.0
 11
138.4189719520379
 21
42.11144352840242
 31
0.0
  0
LINE
  5
BC1
330
488
100
AcDbEntity
  8
Dimensions
 62
     0
440
 16777216
370
    -2
100
AcDbLine
 10
95.79597195203794
 20
43.36144352840242
 30
0.0
 11
133.4189719520379
 21
43.36144352840242
 31
0.0
  0
SOLID
  5
BC2
330
488
100
AcDbEntity
  8
Dimensions
 62
     0
440
 16777216
100
AcDbTrace
 10
95.79597195203794
 20
44.19477686173575
 30
0.0
 11
95.79597195203794
 21
42.52811019506908
 31
0.0
 12
90.79597195203794
 22
43.36144352840242
 32
0.0
 13
90.79597195203794
 23
43.36144352840242
 33
0.0
  0
SOLID
  5
BC3
330
488
100
AcDbEntity
  8
Dimensions
 62
     0
440
 16777216
100
AcDbTrace
 10
133.4189719520379
 20
44.19477686173575
 30
0.0
 11
133.4189719520379
 21
42.52811019506908
 31
0.0
 12
138.4189719520379
 22
43.36144352840242
 32
0.0
 13
138.4189719520379
 23
43.36144352840242
 33
0.0
  0
MTEXT
  5
BC4
330
488
100
AcDbEntity
  8
Dimensions
 62
     0
440
 16777216
100
AcDbMText
 10
114.6074719520379
 20
48.62628032365464
 30
0.0
 40
7.0
 41
0.0
 46
0.0
 71
     5
 72
     1
  1
G 1 1/2
 73
     1
 44
1.0
  0
POINT
  5
BC5
330
488
100
AcDbEntity
  8
Defpoints
 62
     0
440
 16777216
100
AcDbPoint
 10
90.79597195203794
 20
73.06984565114982
 30
0.0
  0
POINT
  5
BC6
330
488
100
AcDbEntity
  8
Defpoints
 62
     0
440
 16777216
100
AcDbPoint
 10
138.4189719520379
 20
73.06984565114982
 30
0.0
  0
POINT
  5
BC7
330
488
100
AcDbEntity
  8
Defpoints
 62
     0
440
 16777216
100
AcDbPoint
 10
138.4189719520379
 20
43.36144352840242
 30
0.0
  0
ENDBLK
  5
48A
330
488
100
AcDbEntity
  8
0
100
AcDbBlockEnd
  0
BLOCK
  5
495
330
494
100
AcDbEntity
  8
0
100
AcDbBlockBegin
  2
*D5
 70
     1
 10
0.0
 20
0.0
 30
0.0
  3
*D5
  1

  0
LINE
  5
E9C
330
494
100
AcDbEntity
  8
Dimensions
 62
     0
440
 16777216
370
    -2
100
AcDbLine
 10
79.48247095203798
 20
106.6583446511498
 30
0.0
 11
43.88251990266414
 21
106.6583446511498
 31
0.0
  0
LINE
  5
E9D
330
494
100
AcDbEntity
  8
Dimensions
 62
     0
440
 16777216
370
    -2
100
AcDbLine
 10
82.98247195203797
 20
86.65834465114983
 30
0.0
 11
43.88251990266414
 21
86.65834465114983
 31
0.0
  0
LINE
  5
E9E
330
494
100
AcDbEntity
  8
Dimensions
 62
     0
440
 16777216
370
    -2
100
AcDbLine
 10
45.13251990266414
 20
111.6583446511498
 30
0.0
 11
45.13251990266414
 21
116.6583446511498
 31
0.0
  0
LINE
  5
E9F
330
494
100
AcDbEntity
  8
Dimensions
 62
     0
440
 16777216
370
    -2
100
AcDbLine
 10
45.13251990266414
 20
81.65834465114983
 30
0.0
 11
45.13251990266415
 21
76.65834465114983
 31
0.0
  0
LINE
  5
EA0
330
494
100
AcDbEntity
  8
Dimensions
 62
     0
440
 16777216
370
    -2
100
AcDbLine
 10
45.13251990266414
 20
106.6583446511498
 30
0.0
 11
45.13251990266414
 21
101.7154663128709
 31
0.0
  0
LINE
  5
EA1
330
494
100
AcDbEntity
  8
Dimensions
 62
     0
440
 16777216
370
    -2
100
AcDbLine
 10
45.13251990266414
 20
86.65834465114983
 30
0.0
 11
45.13251990266414
 21
91.60122298942875
 31
0.0
  0
SOLID
  5
EA2
330
494
100
AcDbEntity
  8
Dimensions
 62
     0
440
 16777216
100
AcDbTrace
 10
44.29918656933081
 20
111.6583446511498
 30
0.0
 11
45.96585323599748
 21
111.6583446511498
 31
0.0
 12
45.13251990266414
 22
106.6583446511498
 32
0.0
 13
45.13251990266414
 23
106.6583446511498
 33
0.0
  0
SOLID
  5
EA3
330
494
100
AcDbEntity
  8
Dimensions
 62
     0
440
 16777216
100
AcDbTrace
 10
44.29918656933081
 20
81.65834465114983
 30
0.0
 11
45.96585323599748
 21
81.65834465114983
 31
0.0
 12
45.13251990266414
 22
86.65834465114983
 32
0.0
 13
45.13251990266414
 23
86.65834465114983
 33
0.0
  0
MTEXT
  5
EA4
330
494
100
AcDbEntity
  8
Dimensions
 62
     0
440
 16777216
100
AcDbMText
 10
45.13251990266417
 20
96.65834465114979
 30
0.0
 40
7.0
 41
0.0
 46
0.0
 71
     5
 72
     1
  1
max 25
 73
     1
 44
1.0
  0
POINT
  5
EA5
330
494
100
AcDbEntity
  8
Defpoints
 62
     0
440
 16777216
100
AcDbPoint
 10
80.10747095203798
 20
106.6583446511498
 30
0.0
  0
POINT
  5
EA6
330
494
100
AcDbEntity
  8
Defpoints
 62
     0
440
 16777216
100
AcDbPoint
 10
83.60747195203797
 20
86.65834465114983
 30
0.0
  0
POINT
  5
EA7
330
494
100
AcDbEntity
  8
Defpoints
 62
     0
440
 16777216
100
AcDbPoint
 10
45.13251990266414
 20
86.65834465114983
 30
0.0
  0
ENDBLK
  5
496
330
494
100
AcDbEntity
  8
0
100
AcDbBlockEnd
  0
BLOCK
  5
6ED
330
6EC
100
AcDbEntity
  8
0
100
AcDbBlockBegin
  2
*D6
 70
     1
 10
0.0
 20
0.0
 30
0.0
  3
*D6
  1

  0
LINE
  5
EBC
330
6EC
100
AcDbEntity
  8
Dimensions
 62
     0
440
 16777216
370
    -2
100
AcDbLine
 10
87.64303536589023
 20
86.03334465114981
 30
0.0
 11
87.64303536589023
 21
22.50282062736216
 31
0.0
  0
LINE
  5
EBD
330
6EC
100
AcDbEntity
  8
Dimensions
 62
     0
440
 16777216
370
    -2
100
AcDbLine
 10
141.5719085381857
 20
86.03334465114981
 30
0.0
 11
141.5719085381857
 21
22.50282062736216
 31
0.0
  0
LINE
  5
EBE
330
6EC
100
AcDbEntity
  8
Dimensions
 62
     0
440
 16777216
370
    -2
100
AcDbLine
 10
92.64303536589023
 20
23.75282062736215
 30
0.0
 11
136.5719085381857
 21
23.75282062736215
 31
0.0
  0
SOLID
  5
EBF
330
6EC
100
AcDbEntity
  8
Dimensions
 62
     0
440
 16777216
100
AcDbTrace
 10
92.64303536589023
 20
24.58615396069549
 30
0.0
 11
92.64303536589023
 21
22.91948729402882
 31
0.0
 12
87.64303536589023
 22
23.75282062736215
 32
0.0
 13
87.64303536589023
 23
23.75282062736215
 33
0.0
  0
SOLID
  5
EC0
330
6EC
100
AcDbEntity
  8
Dimensions
 62
     0
440
 16777216
100
AcDbTrace
 10
136.5719085381857
 20
24.58615396069549
 30
0.0
 11
136.5719085381857
 21
22.91948729402882
 31
0.0
 12
141.5719085381857
 22
23.75282062736215
 32
0.0
 13
141.5719085381857
 23
23.75282062736215
 33
0.0
  0
MTEXT
  5
EC1
330
6EC
100
AcDbEntity
  8
Dimensions
 62
     0
440
 16777216
100
AcDbMText
 10
114.6074719520379
 20
29.17863665110102
 30
0.0
 40
7.0
 41
0.0
 46
0.0
 71
     5
 72
     1
  1
%%C48 min
 73
     1
 44
1.0
  0
POINT
  5
EC2
330
6EC
100
AcDbEntity
  8
Defpoints
 62
     0
440
 16777216
100
AcDbPoint
 10
87.64303536589023
 20
86.65834465114981
 30
0.0
  0
POINT
  5
EC3
330
6EC
100
AcDbEntity
  8
Defpoints
 62
     0
440
 16777216
100
AcDbPoint
 10
141.5719085381857
 20
86.65834465114981
 30
0.0
  0
POINT
  5
EC4
330
6EC
100
AcDbEntity
  8
Defpoints
 62
     0
440
 16777216
100
AcDbPoint
 10
141.5719085381857
 20
23.75282062736215
 30
0.0
  0
ENDBLK
  5
6EE
330
6EC
100
AcDbEntity
  8
0
100
AcDbBlockEnd
  0
BLOCK
  5
DE2
330
DE1
100
AcDbEntity
  8
0
100
AcDbBlockBegin
  2
*U7
 70
     1
 10
0.0
 20
0.0
 30
0.0
  3
*U7
  1

  0
LINE
  5
DE7
330
DE1
100
AcDbEntity
  8
0
  6
CENTER2
 62
     0
440
 16777216
 48
0.4
100
AcDbLine
 10
0.0
 20
-46.13416693438895
 30
0.0
 11
0.0
 21
8.835768999999856
 31
0.0
  0
ENDBLK
  5
DE3
330
DE1
100
AcDbEntity
  8
0
100
AcDbBlockEnd
  0
ENDSEC
  0
SECTION
  2
ENTITIES
  0
DIMENSION
  5
3A3
330
1F
100
AcDbEntity
  8
Dimensions
100
AcDbDimension
280
     0
  2
*D1
 10
149.4074709520379
 20
143.7810141407641
 30
0.0
 11
114.6074714520379
 21
143.7810141407641
 31
0.0
 70
   160
  1
%%C<>
 71
     5
 42
69.59999900000003
 73
     0
 74
     0
 75
     0
  3
DOKA
100
AcDbAlignedDimension
 13
79.80747195203793
 23
123.7359796511498
 33
0.0
 14
149.4074709520379
 24
123.6583456511498
 34
0.0
100
AcDbRotatedDimension
1001
ACAD_DIMASSOC_CALC_DIMLFAC
1040
-1.0
1001
ACAD_DIMASSOC_DIMLFAC
1040
-1.0
1001
ACAD_DIMASSOC_OVERRIDDEN_DIMLFAC
1040
0.0
1001
ACAD_DSTYLE_DIMJAG_POSITION
1070
   387
1070
     0
1070
   389
1010
0.0
1020
0.0
1030
0.0
1001
ACAD
1000
DSTYLE
1002
{
1070
   140
1040
7.0
1002
}
  0
DIMENSION
  5
3A4
330
1F
100
AcDbEntity
  8
Dimensions
100
AcDbDimension
280
     0
  2
*D2
 10
217.9313472769036
 20
71.65834465114985
 30
0.0
 11
217.9313472769036
 21
100.6922895734224
 31
0.0
 70
   160
  1
58 a 73
 71
     5
 42
57.57783299999998
 73
     0
 74
     0
 75
     0
  3
DOKA
100
AcDbAlignedDimension
 13
114.6078349520379
 23
129.2361776511498
 33
0.0
 14
137.0074709520379
 24
71.6583446511498
 34
0.0
 50
90.0
100
AcDbRotatedDimension
1001
ACAD_DIMASSOC_CALC_DIMLFAC
1040
-1.0
1001
ACAD_DIMASSOC_DIMLFAC
1040
-1.0
1001
ACAD_DIMASSOC_OVERRIDDEN_DIMLFAC
1040
0.0
1001
ACAD_DSTYLE_DIMJAG_POSITION
1070
   387
1070
     0
1070
   389
1010
0.0
1020
0.0
1030
0.0
1001
ACAD
1000
DSTYLE
1002
{
1070
   140
1040
7.0
1002
}
  0
DIMENSION
  5
3A5
330
1F
100
AcDbEntity
  8
Dimensions
100
AcDbDimension
280
     0
  2
*D3
 10
184.7879658056067
 20
71.65834465114985
 30
0.0
 11
184.7879658056067
 21
89.15834465114979
 31
0.0
 70
   160
  1
38 a 50
 71
     5
 42
35.0
 73
     0
 74
     0
 75
     0
  3
DOKA
100
AcDbAlignedDimension
 13
149.1074719520379
 23
106.6583446511498
 33
0.0
 14
137.0074709520379
 24
71.6583446511498
 34
0.0
 50
90.0
100
AcDbRotatedDimension
1001
ACAD_DIMASSOC_CALC_DIMLFAC
1040
-1.0
1001
ACAD_DIMASSOC_DIMLFAC
1040
-1.0
1001
ACAD_DIMASSOC_OVERRIDDEN_DIMLFAC
1040
0.0
1001
ACAD_DSTYLE_DIMJAG_POSITION
1070
   387
1070
     0
1070
   389
1010
0.0
1020
0.0
1030
0.0
1001
ACAD
1000
DSTYLE
1002
{
1070
   140
1040
7.0
1002
}
  0
DIMENSION
  5
3A6
330
1F
100
AcDbEntity
  8
Dimensions
100
AcDbDimension
280
     0
  2
*D4
 10
138.4189719520379
 20
43.36144352840242
 30
0.0
 11
114.6074719520379
 21
43.36144352840242
 31
0.0
 70
   160
  1
G 1 1/2
 71
     5
 42
47.62299999999996
 73
     0
 74
     0
 75
     0
  3
DOKA
100
AcDbAlignedDimension
 13
90.79597195203794
 23
73.06984565114982
 33
0.0
 14
138.4189719520379
 24
73.06984565114982
 34
0.0
100
AcDbRotatedDimension
1001
ACAD_DIMASSOC_CALC_DIMLFAC
1040
-1.0
1001
ACAD_DIMASSOC_DIMLFAC
1040
-1.0
1001
ACAD_DIMASSOC_OVERRIDDEN_DIMLFAC
1040
0.0
1001
ACAD_DSTYLE_DIMJAG_POSITION
1070
   387
1070
     0
1070
   389
1010
0.0
1020
0.0
1030
0.0
1001
ACAD
1000
DSTYLE
1002
{
1070
   140
1040
7.0
1002
}
  0
DIMENSION
  5
3A7
330
1F
100
AcDbEntity
  8
Dimensions
100
AcDbDimension
280
     0
  2
*D5
 10
45.13251990266414
 20
86.65834465114983
 30
0.0
 11
45.13251990266417
 21
96.65834465114979
 31
0.0
 70
   160
  1
max 25
 71
     5
 42
20.0
 73
     0
 74
     0
 75
     0
  3
DOKA
100
AcDbAlignedDimension
 13
80.10747095203795
 23
106.6583446511498
 33
0.0
 14
83.60747195203794
 24
86.65834465114981
 34
0.0
 50
90.0
100
AcDbRotatedDimension
1001
ACAD_DIMASSOC_CALC_DIMLFAC
1040
-1.0
1001
ACAD_DIMASSOC_DIMLFAC
1040
-1.0
1001
ACAD_DIMASSOC_OVERRIDDEN_DIMLFAC
1040
0.0
1001
ACAD_DSTYLE_DIMJAG_POSITION
1070
   387
1070
     0
1070
   389
1010
0.0
1020
0.0
1030
0.0
1001
ACAD
1000
DSTYLE
1002
{
1070
   140
1040
7.0
1002
}
  0
LINE
  5
504
102
{ACAD_REACTORS
330
543
330
544
102
}
330
1F
100
AcDbEntity
  8
0
100
AcDbLine
 10
65.73785299576718
 20
86.65834465114981
 30
0.0
 11
87.64303536589023
 21
86.65834465114981
 31
0.0
  0
LINE
  5
505
102
{ACAD_REACTORS
330
543
330
544
330
702
102
}
330
1F
100
AcDbEntity
  8
0
100
AcDbLine
 10
87.64303536589023
 20
86.65834465114981
 30
0.0
 11
87.64303536589023
 21
100.163952260182
 31
0.0
  0
LINE
  5
506
102
{ACAD_REACTORS
330
543
330
544
102
}
330
1F
100
AcDbEntity
  8
0
100
AcDbLine
 10
84.64303536589024
 20
103.163952260182
 30
0.0
 11
68.65350582100472
 21
103.163952260182
 31
0.0
  0
ARC
  5
50A
102
{ACAD_REACTORS
330
543
330
544
102
}
330
1F
100
AcDbEntity
  8
0
100
AcDbCircle
 10
84.64303536589024
 20
100.163952260182
 30
0.0
 40
3.0
100
AcDbArc
 50
0.0
 51
90.0
  0
SPLINE
  5
51A
102
{ACAD_REACTORS
330
543
330
544
102
}
330
1F
100
AcDbEntity
  8
0
100
AcDbSpline
210
0.0
220
0.0
230
1.0
 70
  1064
 71
     3
 72
    10
 73
     6
 74
     4
 42
0.000000001
 43
0.0000000001
 44
0.0000000001
 40
0.0
 40
0.0
 40
0.0
 40
0.0
 40
5.213221172375281
 40
12.60244158970136
 40
18.63359713389346
 40
18.63359713389346
 40
18.63359713389346
 40
18.63359713389346
 10
65.73785299576718
 20
86.65834465114981
 30
0.0
 10
67.12650644823208
 20
88.08462576710558
 30
0.0
 10
70.48343749803298
 20
91.53251793588101
 30
0.0
 10
63.72334663288218
 20
97.60495635395635
 30
0.0
 10
67.1248571944189
 20
101.4403260783499
 30
0.0
 10
68.65350582100472
 20
103.163952260182
 30
0.0
 11
65.73785299576718
 21
86.65834465114981
 31
0.0
 11
68.54700022523353
 21
91.0499692748265
 31
0.0
 11
65.73785299576718
 21
97.88438733483792
 31
0.0
 11
68.65350582100472
 21
103.163952260182
 31
0.0
  0
HATCH
  5
543
102
{ACAD_REACTORS
330
544
102
}
330
1F
100
AcDbEntity
  8
0
100
AcDbHatch
 10
0.0
 20
0.0
 30
0.0
210
0.0
220
0.0
230
1.0
  2
ANSI31
 70
     0
 71
     1
 91
        1
 92
        5
 93
        5
 72
     4
 94
        3
 73
     0
 74
     0
 95
       10
 96
        6
 40
0.0
 40
0.0
 40
0.0
 40
0.0
 40
6.031155544192134
 40
13.42037596151822
 40
18.63359713389349
 40
18.63359713389349
 40
18.63359713389349
 40
18.63359713389349
 10
68.65350582100472
 20
103.163952260182
 10
67.1248571944189
 20
101.4403260783499
 10
63.72334663288218
 20
97.60495635395635
 10
70.48343749803301
 20
91.53251793588101
 10
67.12650644823208
 20
88.08462576710558
 10
65.73785299576718
 20
86.65834465114981
 97
        4
 11
68.65350582100472
 21
103.163952260182
 11
65.73785299576718
 21
97.8843873348379
 11
68.54700022523354
 21
91.04996927482648
 11
65.73785299576718
 21
86.65834465114979
 12
-0.7603759919893996
 22
-0.857361165303671
 13
-0.7991144476029535
 23
-0.8207676609887286
 72
     1
 10
65.73785299576718
 20
86.65834465114981
 11
87.64303536589023
 21
86.65834465114981
 72
     1
 10
87.64303536589023
 20
86.65834465114981
 11
87.64303536589023
 21
100.163952260182
 72
     2
 10
84.64303536589024
 20
100.163952260182
 40
3.0
 50
0.0
 51
90.0
 73
     1
 72
     1
 10
84.64303536589024
 20
103.163952260182
 11
68.65350582100472
 21
103.163952260182
 97
        5
330
50A
330
506
330
51A
330
504
330
505
 75
     1
 76
     1
 52
0.0
 41
1.0
 77
     0
 78
     1
 53
45.0
 43
58.03545249501201
 44
46.84921765114981
 45
-2.245064030267287
 46
2.245064030267287
 79
     0
 47
0.0532241455819729
 98
        1
 10
76.05563062944179
 20
97.85148563690569
1001
GradientColor1ACI
1070
     5
1001
GradientColor2ACI
1070
     2
1001
ACAD
1010
0.0
1020
0.0
1030
0.0
  0
HATCH
  5
546
102
{ACAD_REACTORS
330
54C
102
}
330
1F
100
AcDbEntity
  8
0
100
AcDbHatch
 10
0.0
 20
0.0
 30
0.0
210
0.0
220
0.0
230
1.0
  2
ANSI31
 70
     0
 71
     1
 91
        1
 92
        5
 93
        5
 72
     2
 10
144.5719085381857
 20
100.163952260182
 40
2.999999999999999
 50
90.0
 51
180.0
 73
     1
 72
     1
 10
141.5719085381857
 20
100.163952260182
 11
141.5719085381857
 21
86.65834465114981
 72
     1
 10
141.5719085381857
 20
86.65834465114981
 11
163.4770909083087
 21
86.65834465114981
 72
     4
 94
        3
 73
     0
 74
     0
 95
       10
 96
        6
 40
0.0
 40
0.0
 40
0.0
 40
0.0
 40
5.213221172375241
 40
12.6024415897013
 40
18.63359713389339
 40
18.63359713389339
 40
18.63359713389339
 40
18.63359713389339
 10
163.4770909083087
 20
86.65834465114981
 10
162.0884374558438
 20
88.08462576710558
 10
158.731506406043
 20
91.53251793588102
 10
165.4915972711936
 20
97.60495635395635
 10
162.090086709657
 20
101.4403260783499
 10
160.5614380830712
 20
103.163952260182
 97
        4
 11
163.4770909083087
 21
86.65834465114981
 11
160.6679436788424
 21
91.0499692748265
 11
163.4770909083087
 21
97.88438733483792
 11
160.5614380830712
 21
103.163952260182
 12
0.0
 22
0.0
 13
0.0
 23
0.0
 72
     1
 10
160.5614380830711
 20
103.163952260182
 11
144.5719085381857
 21
103.163952260182
 97
        5
330
549
330
54A
330
54B
330
547
330
548
 75
     1
 76
     1
 52
0.0
 41
1.0
 77
     0
 78
     1
 53
45.0
 43
58.03545249501201
 44
46.84921765114981
 45
-2.245064030267287
 46
2.245064030267287
 79
     0
 47
0.0532241455819729
 98
        1
 10
153.1593132746341
 20
97.85148563690569
1001
GradientColor1ACI
1070
     5
1001
GradientColor2ACI
1070
     2
1001
ACAD
1010
0.0
1020
0.0
1030
0.0
  0
LINE
  5
547
102
{ACAD_REACTORS
330
546
330
54C
102
}
330
1F
100
AcDbEntity
  8
0
100
AcDbLine
 10
163.4770909083087
 20
86.65834465114981
 30
0.0
 11
141.5719085381857
 21
86.65834465114981
 31
0.0
  0
LINE
  5
548
102
{ACAD_REACTORS
330
546
330
54C
330
702
102
}
330
1F
100
AcDbEntity
  8
0
100
AcDbLine
 10
141.5719085381857
 20
86.65834465114981
 30
0.0
 11
141.5719085381857
 21
100.163952260182
 31
0.0
  0
ARC
  5
549
102
{ACAD_REACTORS
330
546
330
54C
102
}
330
1F
100
AcDbEntity
  8
0
100
AcDbCircle
 10
144.5719085381857
 20
100.163952260182
 30
0.0
 40
3.0
100
AcDbArc
 50
90.0
 51
180.0
  0
LINE
  5
54A
102
{ACAD_REACTORS
330
546
330
54C
102
}
330
1F
100
AcDbEntity
  8
0
100
AcDbLine
 10
144.5719085381857
 20
103.163952260182
 30
0.0
 11
160.5614380830712
 21
103.163952260182
 31
0.0
  0
SPLINE
  5
54B
102
{ACAD_REACTORS
330
546
330
54C
102
}
330
1F
100
AcDbEntity
  8
0
100
AcDbSpline
210
0.0
220
0.0
230
1.0
 70
  1064
 71
     3
 72
    10
 73
     6
 74
     4
 42
0.000000001
 43
0.0000000001
 44
0.0000000001
 40
0.0
 40
0.0
 40
0.0
 40
0.0
 40
5.213221172375241
 40
12.6024415897013
 40
18.63359713389339
 40
18.63359713389339
 40
18.63359713389339
 40
18.63359713389339
 10
163.4770909083087
 20
86.65834465114981
 30
0.0
 10
162.0884374558438
 20
88.08462576710558
 30
0.0
 10
158.731506406043
 20
91.53251793588102
 30
0.0
 10
165.4915972711936
 20
97.60495635395635
 30
0.0
 10
162.090086709657
 20
101.4403260783499
 30
0.0
 10
160.5614380830712
 20
103.163952260182
 30
0.0
 11
163.4770909083087
 21
86.65834465114981
 31
0.0
 11
160.6679436788424
 21
91.0499692748265
 31
0.0
 11
163.4770909083087
 21
97.88438733483792
 31
0.0
 11
160.5614380830712
 21
103.163952260182
 31
0.0
  0
DIMENSION
  5
6EB
102
{ACAD_XDICTIONARY
360
6F8
102
}
102
{ACAD_REACTORS
330
702
102
}
330
1F
100
AcDbEntity
  8
Dimensions
100
AcDbDimension
280
     0
  2
*D6
 10
141.5719085381857
 20
23.75282062736215
 30
0.0
 11
114.6074719520379
 21
23.75282062736215
 31
0.0
 70
   160
  1
%%C48 min
 71
     5
 42
53.92887317229543
 73
     0
 74
     0
 75
     0
  3
DOKA
100
AcDbAlignedDimension
 13
87.64303536589023
 23
86.65834465114981
 33
0.0
 14
141.5719085381857
 24
86.65834465114981
 34
0.0
100
AcDbRotatedDimension
1001
ACAD
1000
DSTYLE
1002
{
1070
   140
1040
7.0
1002
}
  0
LINE
  5
A7C
330
1F
100
AcDbEntity
  8
Visible
100
AcDbLine
 10
112.6074721851618
 20
68.65834416098627
 30
6.708204011489669
 11
112.6074721851618
 21
65.65834416098628
 31
6.708204011489669
  0
SPLINE
  5
A7D
330
1F
100
AcDbEntity
  8
Visible
100
AcDbSpline
210
1.0
220
0.0
230
0.0
 70
    12
 71
     2
 72
     6
 73
     3
 74
     0
 42
0.000000001
 43
0.0000000001
 40
0.0
 40
0.0
 40
0.0
 40
0.2918655297398029
 40
0.2918655297398029
 40
0.2918655297398029
 10
112.6074719485617
 20
65.65834465114967
 30
6.708204043949062
 41
1.0
 10
112.6074719485617
 20
64.4700823460619
 30
5.468254242286639
 41
1.01606764616187
 10
112.6074719485617
 20
63.65834465114979
 30
4.582575807248204
 41
1.0
1001
ACAD_VIEW_EDGE_ID
1071
        5
1071
       -1
1071
        1
1071
        0
  0
ARC
  5
A7E
330
1F
100
AcDbEntity
  8
Visible
100
AcDbCircle
 10
114.6074721851618
 20
0.0000000114896705
 30
-65.65834416098628
 40
7.000000104308128
210
0.0
220
-1.0
230
0.0
100
AcDbArc
 50
0.0
 51
106.6015499999985
  0
ARC
  5
A7F
330
1F
100
AcDbEntity
  8
Visible
100
AcDbCircle
 10
-114.6074721851618
 20
0.0000000114896705
 30
63.65834416098627
 40
5.000000104308124
210
0.0
220
1.0
230
0.0
100
AcDbArc
 50
66.42182200000164
 51
180.0
  0
ARC
  5
A80
330
1F
100
AcDbEntity
  8
Visible
100
AcDbCircle
 10
114.6074721851618
 20
0.0000000114896705
 30
-70.65834416098628
 40
11.0
210
0.0
220
-1.0
230
0.0
100
AcDbArc
 50
0.0
 51
180.0
  0
ARC
  5
A81
330
1F
100
AcDbEntity
  8
Visible
100
AcDbCircle
 10
-114.6074721851618
 20
0.0000000114896705
 30
68.65834416098627
 40
9.0
210
0.0
220
1.0
230
0.0
100
AcDbArc
 50
0.0
 51
180.0
  0
ARC
  5
A83
330
1F
100
AcDbEntity
  8
Visible
100
AcDbCircle
 10
-114.6074721851618
 20
0.0000000114896705
 30
106.6583441609862
 40
34.50000052154064
210
0.0000000000000001
220
1.0
230
0.0
100
AcDbArc
 50
0.0
 51
180.0
  0
ARC
  5
A85
330
1F
100
AcDbEntity
  8
Visible
100
AcDbCircle
 10
114.6074721851618
 20
0.0000000114896705
 30
-108.6583451609863
 40
34.50000052154064
210
-0.0000000000000001
220
-1.0
230
0.0
100
AcDbArc
 50
0.0
 51
180.0
  0
ARC
  5
A86
330
1F
100
AcDbEntity
  8
Visible
100
AcDbCircle
 10
114.6074721851618
 20
0.0000000114896705
 30
-73.06984516098637
 40
23.8115
210
0.0
220
-1.0
230
0.0
100
AcDbArc
 50
0.0
 51
180.0
  0
SPLINE
  5
A95
330
1F
100
AcDbEntity
  8
Visible Narrow
100
AcDbSpline
 70
     0
 71
     3
 72
    23
 73
    19
 74
     0
 42
0.000000001
 43
0.0000000001
 40
43.95106031591134
 40
43.95106031591134
 40
43.95106031591134
 40
43.95106031591134
 40
44.52516540121613
 40
44.52516540121613
 40
44.52516540121613
 40
45.13801229105559
 40
45.13801229105559
 40
45.13801229105559
 40
45.7507956954719
 40
45.7507956954719
 40
45.7507956954719
 40
46.36351634097748
 40
46.36351634097748
 40
46.36351634097748
 40
46.97617495331622
 40
46.97617495331622
 40
46.97617495331622
 40
47.09265296950114
 40
47.09265296950114
 40
47.09265296950114
 40
47.09265296950114
 10
137.1891131145199
 20
93.64188055621644
 30
-0.7057070643034984
 10
137.3199547192738
 20
93.57155206472029
 30
3.614998822774403
 10
136.1859391288649
 20
93.50122357322234
 30
7.969464510950182
 10
133.9523891121057
 20
93.43089508172599
 30
11.67146961137708
 10
131.5681144973892
 20
93.35582067743349
 30
15.62329371124891
 10
127.9419217110258
 20
93.28074627314103
 30
18.81337692830779
 10
123.7184685313746
 20
93.20567186884838
 30
20.67459222859135
 10
119.4954528634694
 20
93.13060524158865
 30
22.53561472371773
 10
114.6948033835738
 20
93.05553861432898
 30
23.0594592596337
 10
110.169803198643
 20
92.98047198706749
 30
22.15301599879717
 10
105.6452664467629
 20
92.90541304784289
 30
21.2466655723802
 10
101.4172040359639
 20
92.83035410861648
 30
18.91451182265415
 10
98.23697985443828
 20
92.75529516938991
 30
15.57099898884889
 10
95.05707764570749
 20
92.68024382929368
 30
12.22782465953355
 10
92.93946652960363
 20
92.60519248919754
 30
7.888926051083307
 10
92.26039249610895
 20
92.53014114910298
 30
3.32521581594274
 10
92.13128764934612
 20
92.51587246662465
 30
2.45756798740285
 10
92.05429195575346
 20
92.50160378414816
 30
1.58255516479466
 10
92.02847449220415
 20
92.48733510166969
 30
0.705998283979235
1001
ACAD_VIEW_EDGE_ID
1071
       78
1071
       -1
1071
        1
1071
        0
  0
SPLINE
  5
A96
330
1F
100
AcDbEntity
  8
Visible Narrow
100
AcDbSpline
 70
     0
 71
     3
 72
    23
 73
    19
 74
     0
 42
0.000000001
 43
0.0000000001
 40
50.23424562309092
 40
50.23424562309092
 40
50.23424562309092
 40
50.23424562309092
 40
50.65086447802052
 40
50.65086447802052
 40
50.65086447802052
 40
51.26310911642537
 40
51.26310911642537
 40
51.26310911642537
 40
51.87529750106813
 40
51.87529750106813
 40
51.87529750106813
 40
52.4874303511956
 40
52.4874303511956
 40
52.4874303511956
 40
53.0995083853789
 40
53.0995083853789
 40
53.0995083853789
 40
53.37583827668073
 40
53.37583827668073
 40
53.37583827668073
 40
53.37583827668073
 10
137.183362674988
 20
91.33278964712493
 30
-0.7059775136920603
 10
137.2766902011568
 20
91.2817533885275
 30
2.429625135058166
 10
136.7229512084336
 20
91.23071712992837
 30
5.585603377814358
 10
135.5434961696278
 20
91.17968087133093
 30
8.493050852928464
 10
133.8102212225036
 20
91.10468024348779
 30
12.76570703980011
 10
130.7336358856386
 20
91.02967961564464
 30
16.48198084213138
 10
126.8596724569702
 20
90.95467898780164
 30
18.98242885936051
 10
122.9860649726448
 20
90.87968525110348
 30
21.48264713246607
 10
118.3330469870321
 20
90.80469151440707
 30
22.75576936220573
 10
113.7261411412232
 20
90.7296977777108
 30
22.57592252836417
 10
109.1196532097197
 20
90.65471084405109
 30
22.39609200928289
 10
104.5804490569966
 20
90.57972391039342
 30
20.76439027331728
 10
100.9137205270013
 20
90.50473697673373
 30
17.9702585716973
 10
97.24732034923514
 20
90.42975675808824
 30
15.17637708204906
 10
94.47008693950865
 20
90.35477653944084
 30
11.23312109919258
 10
93.07457943994949
 20
90.27979632079521
 30
6.839850920795064
 10
92.44456102051977
 20
90.24594561138954
 30
4.856456969277046
 10
92.09746853172829
 20
90.21209490198392
 30
2.785457104812591
 10
92.03342435026531
 20
90.17824419258005
 30
0.7055623722617601
1001
ACAD_VIEW_EDGE_ID
1071
       78
1071
       -1
1071
        1
1071
        0
  0
SPLINE
  5
A97
330
1F
100
AcDbEntity
  8
Visible Narrow
100
AcDbSpline
 70
     0
 71
     3
 72
    23
 73
    19
 74
     0
 42
0.000000001
 43
0.0000000001
 40
56.51743093027052
 40
56.51743093027052
 40
56.51743093027052
 40
56.51743093027052
 40
56.77086561280017
 40
56.77086561280017
 40
56.77086561280017
 40
57.38258000052489
 40
57.38258000052489
 40
57.38258000052489
 40
57.99424529764331
 40
57.99424529764331
 40
57.99424529764331
 40
58.60586221705441
 40
58.60586221705441
 40
58.60586221705441
 40
59.21743147107194
 40
59.21743147107194
 40
59.21743147107194
 40
59.65902358386031
 40
59.65902358386031
 40
59.65902358386031
 40
59.65902358386031
 10
137.1818749217814
 20
89.02369873803344
 30
-0.7050586873189762
 10
137.2429776373296
 20
88.99265271637094
 30
1.202396492140845
 10
137.065761002124
 20
88.96160669470848
 30
3.117231363593336
 10
136.6451493750351
 20
88.93056067304438
 30
4.978935288498726
 10
135.6299205935371
 20
88.85562500148202
 30
9.472523400358712
 10
133.2013512304852
 20
88.78068932991778
 30
13.63597080523221
 10
129.7896782802396
 20
88.70575365835362
 30
16.73169548265273
 10
126.3782791196841
 20
88.63082400044303
 30
19.82717172550247
 10
121.9995762246085
 20
88.55589434253241
 30
21.84091193722564
 10
117.4291676506905
 20
88.48096468461998
 30
22.41622304448943
 10
112.8591205585994
 20
88.40604095302962
 30
22.99148864936409
 10
108.1183411743237
 20
88.33111722143922
 30
22.12592290479617
 10
104.0464362570815
 20
88.25619348985062
 30
19.97282019358238
 10
99.97484867728559
 20
88.18127559732166
 30
17.81988528100996
 10
96.59068062084362
 20
88.10635770479461
 30
14.38948245074771
 10
94.49319031052031
 20
88.03143981226586
 30
10.28905703918055
 10
92.97866816670063
 20
87.9773443026727
 30
7.328287659539387
 10
92.14184913860441
 20
87.92324879308152
 30
4.027794297980817
 10
92.03221468027141
 20
87.86915328348854
 30
0.7047283954060487
1001
ACAD_VIEW_EDGE_ID
1071
       78
1071
       -1
1071
        1
1071
        0
  0
SPLINE
  5
A98
330
1F
100
AcDbEntity
  8
Visible Narrow
100
AcDbSpline
 70
     0
 71
     3
 72
    11
 73
     7
 74
     0
 42
0.000000001
 43
0.0000000001
 40
62.80061623745011
 40
62.80061623745011
 40
62.80061623745011
 40
62.80061623745011
 40
62.94251862800336
 40
62.94251862800336
 40
62.94251862800336
 40
62.95371278431632
 40
62.95371278431632
 40
62.95371278431632
 40
62.95371278431632
 10
137.1854061039025
 20
86.71460782894362
 30
-0.7049347571244497
 10
137.2207204519068
 20
86.69722463321281
 30
0.3628556849572976
 10
137.1804085608506
 20
86.67984143748363
 30
1.433044513910131
 10
137.062384569857
 20
86.66245824175282
 30
2.495179772709348
 10
137.0530740924328
 20
86.66108694554472
 30
2.578967706556923
 10
137.0432808108813
 20
86.65971564933467
 30
2.662698374119209
 10
137.0330068502003
 20
86.65834435312651
 30
2.746366994136364
1001
ACAD_VIEW_EDGE_ID
1071
       78
1071
       -1
1071
        1
1071
        0
  0
SPLINE
  5
A99
330
1F
100
AcDbEntity
  8
Visible Narrow
100
AcDbSpline
 70
     0
 71
     3
 72
     8
 73
     4
 74
     0
 42
0.000000001
 43
0.0000000001
 40
84.72222913356665
 40
84.72222913356665
 40
84.72222913356665
 40
84.72222913356665
 40
84.79176481257869
 40
84.79176481257869
 40
84.79176481257869
 40
84.79176481257869
 10
92.13709107809654
 20
78.65834423391729
 30
2.272280887645633
 10
92.08464281713309
 20
78.64982603831899
 30
1.751281305813793
 10
92.05003357560554
 20
78.64130784272245
 30
1.228474801095869
 10
92.03335366590863
 20
78.63278964712415
 30
0.7051122837684869
1001
ACAD_VIEW_EDGE_ID
1071
       78
1071
       -1
1071
        1
1071
        0
  0
SPLINE
  5
A9A
330
1F
100
AcDbEntity
  8
Visible Narrow
100
AcDbSpline
 70
     0
 71
     3
 72
    23
 73
    19
 74
     0
 42
0.000000001
 43
0.0000000001
 40
87.93335746616845
 40
87.93335746616845
 40
87.93335746616845
 40
87.93335746616845
 40
88.12158025363025
 40
88.12158025363025
 40
88.12158025363025
 40
88.73363945160596
 40
88.73363945160596
 40
88.73363945160596
 40
89.34548752503934
 40
89.34548752503934
 40
89.34548752503934
 40
89.95713592026445
 40
89.95713592026445
 40
89.95713592026445
 40
90.58037089716517
 40
90.58037089716517
 40
90.58037089716517
 40
91.07495011975826
 40
91.07495011975826
 40
91.07495011975826
 40
91.07495011975826
 10
137.1836572578209
 20
77.47824419257934
 30
-0.7048766771413148
 10
137.2301124142099
 20
77.4551866983232
 30
0.7115940264671817
 10
137.1443798614996
 20
77.43212920406516
 30
2.132169910006
 10
136.9227630891924
 20
77.40907170980737
 30
3.532252008639792
 10
136.2021139810525
 20
77.33409379861715
 30
8.085011735269191
 10
134.0479572775217
 20
77.25911588742682
 30
12.40014150790526
 10
130.8423234344114
 20
77.18413797623482
 30
15.71237156171966
 10
127.6377953470524
 20
77.10918592802895
 30
19.02345909033972
 10
123.3972481720188
 20
77.03423387982113
 30
21.31715640915986
 10
118.8722336022379
 20
76.9592818316153
 30
22.18695180356657
 10
114.3486957827185
 20
76.88435424420394
 30
23.05646333798668
 10
109.5616221901214
 20
76.80942665679257
 30
22.49904146129407
 10
105.3589010616684
 20
76.73449906938114
 30
20.61341694151974
 10
101.076566920257
 20
76.65815211323141
 30
18.69207264764244
 10
97.42216343647079
 20
76.58180515708162
 30
15.3994851147863
 10
95.06635278908614
 20
76.50545820093181
 30
11.33991545927178
 10
93.19685726694071
 20
76.44487171329948
 30
8.118371613527694
 10
92.15172828309693
 20
76.38428522566695
 30
4.426557784513969
 10
92.0286497260472
 20
76.32369873803448
 30
0.7050242789903384
1001
ACAD_VIEW_EDGE_ID
1071
       78
1071
       -1
1071
        1
1071
        0
  0
SPLINE
  5
A9B
330
1F
100
AcDbEntity
  8
Visible Narrow
100
AcDbSpline
 70
     0
 71
     3
 72
    26
 73
    22
 74
     0
 42
0.000000001
 43
0.0000000001
 40
94.21654277334804
 40
94.21654277334804
 40
94.21654277334804
 40
94.21654277334804
 40
94.26258735576892
 40
94.26258735576892
 40
94.26258735576892
 40
94.87448181924346
 40
94.87448181924346
 40
94.87448181924346
 40
95.50628353567249
 40
95.50628353567249
 40
95.50628353567249
 40
96.12095801232184
 40
96.12095801232184
 40
96.12095801232184
 40
96.73440963183693
 40
96.73440963183693
 40
96.73440963183693
 40
97.34682703385271
 40
97.34682703385271
 40
97.34682703385271
 40
97.35813542693785
 40
97.35813542693785
 40
97.35813542693785
 40
97.35813542693785
 10
137.1889519083793
 20
75.16915328348787
 30
-0.7054721459978363
 10
137.2001596557179
 20
75.1635127725324
 30
-0.3589718768345511
 10
137.2032485316409
 20
75.15787226157712
 30
-0.0121845601707471
 10
137.1981139316281
 20
75.15223175062172
 30
0.3345409982816685
 10
137.1298793390865
 20
75.07727401958546
 30
4.942237244127756
 10
135.6097332964086
 20
75.00231628854752
 30
9.517854901882783
 10
132.907129797813
 20
74.92735855751127
 30
13.25034133628257
 10
130.1166003337217
 20
74.84996216653897
 30
17.10425974307977
 10
126.0769852045628
 20
74.77256577556662
 30
20.03843881451747
 10
121.5490035478519
 20
74.69516938459432
 30
21.50032933460043
 10
117.1437689896952
 20
74.61987109894952
 30
22.92259009614041
 10
112.2984660234864
 20
74.544572813303
 30
22.94659954647429
 10
107.8793529624849
 20
74.46927452765649
 30
21.56806520150079
 10
103.4690314556114
 20
74.39412604332694
 30
20.19227336597355
 10
99.50366673921742
 20
74.31897755899749
 30
17.426067490959
 10
96.68953153585926
 20
74.24382907466801
 30
13.76213763001585
 10
93.88014068035177
 20
74.16880728309601
 30
10.10438478492485
 10
92.23096319905165
 20
74.09378549152572
 30
5.568905580496193
 10
92.0347978576496
 20
74.01876369995384
 30
0.9609394333102374
 10
92.03117563074517
 20
74.01737840961615
 30
0.8758525426637053
 10
92.02804909547882
 20
74.01599311928052
 30
0.7907481598303312
 10
92.02541684811649
 20
74.01460782894296
 30
0.7056314936034627
1001
ACAD_VIEW_EDGE_ID
1071
       78
1071
       -1
1071
        1
1071
        0
  0
SPLINE
  5
AAA
330
1F
100
AcDbEntity
  8
Visible Narrow
100
AcDbSpline
 70
     0
 71
     3
 72
    23
 73
    19
 74
     0
 42
0.000000001
 43
0.0000000001
 40
44.0135339846027
 40
44.0135339846027
 40
44.0135339846027
 40
44.0135339846027
 40
44.47094864146412
 40
44.47094864146412
 40
44.47094864146412
 40
45.08399035447577
 40
45.08399035447577
 40
45.08399035447577
 40
45.6969663978206
 40
45.6969663978206
 40
45.6969663978206
 40
46.30987750037371
 40
46.30987750037371
 40
46.30987750037371
 40
46.92272439021318
 40
46.92272439021318
 40
46.92272439021318
 40
47.15512663819249
 40
47.15512663819249
 40
47.15512663819249
 40
47.15512663819249
 10
137.1848806691464
 20
94.27480874608344
 30
0.7049051587239831
 10
137.0712548920141
 20
94.21877495779446
 30
4.146961848791513
 10
136.1735591596839
 20
94.16274116950559
 30
7.564364277743616
 10
134.5564435988467
 20
94.10670738121678
 30
10.60601494725071
 10
132.3891337440322
 20
94.03160911087557
 30
14.6825321922646
 10
128.9396185257151
 20
93.95651084053438
 30
18.06526562629145
 10
124.8215154797686
 20
93.88141257019318
 30
20.15247720125037
 10
120.7038535693096
 20
93.80632234445817
 30
22.23946519193143
 10
115.9367878018488
 20
93.73123211872124
 30
23.02156814782515
 10
111.3681364132222
 20
93.65614189298442
 30
22.35968978189621
 10
106.7999690432476
 20
93.58105962256493
 30
21.69788153763934
 10
102.4512834017054
 20
93.50597735214554
 30
19.59546489736071
 10
99.09533407552908
 20
93.43089508172599
 30
16.42627771569971
 10
95.739736341307
 20
93.35582067743349
 30
13.25742255952852
 10
93.39216160677963
 20
93.28074627314103
 30
9.036664580035953
 10
92.46995732202918
 20
93.20567186884838
 30
4.514362244732306
 10
92.12024134496244
 20
93.17720234307795
 30
2.799426187796469
 10
91.97611325613946
 20
93.14873281730738
 30
1.044129692908089
 10
92.03265508473265
 20
93.12026329153864
 30
-0.7049627744273961
1001
ACAD_VIEW_EDGE_ID
1071
       87
1071
       -1
1071
        1
1071
        0
  0
SPLINE
  5
AAB
330
1F
100
AcDbEntity
  8
Visible Narrow
100
AcDbSpline
 70
     0
 71
     3
 72
    23
 73
    19
 74
     0
 42
0.000000001
 43
0.0000000001
 40
50.29671929178229
 40
50.29671929178229
 40
50.29671929178229
 40
50.29671929178229
 40
50.59849793659539
 40
50.59849793659539
 40
50.59849793659539
 40
51.21091565866163
 40
51.21091565866163
 40
51.21091565866163
 40
51.82327496507956
 40
51.82327496507956
 40
51.82327496507956
 40
52.4355765771781
 40
52.4355765771781
 40
52.4355765771781
 40
53.04782121558297
 40
53.04782121558297
 40
53.04782121558297
 40
53.43831194537209
 40
53.43831194537209
 40
53.43831194537209
 40
53.43831194537209
 10
137.1813480520936
 20
91.96571783699196
 30
0.7053952159632406
 10
137.1105294550339
 20
91.92874962786422
 30
2.976832117491491
 10
136.7022802220431
 20
91.89178141873467
 30
5.237715832053915
 10
135.9593452301683
 20
91.8548132096051
 30
7.385562290104156
 10
134.4516621545532
 20
91.77979137882832
 30
11.74431748300988
 10
131.5725936302929
 20
91.70476954804994
 30
15.61747496603459
 10
127.833296615328
 20
91.62974771727144
 30
18.31738476490675
 10
124.09435627433
 20
91.55473304247363
 30
21.01703703207203
 10
119.5125728242141
 20
91.47971836767402
 30
22.53124064447775
 10
114.9012605305193
 20
91.40470369287621
 30
22.59120869582167
 10
110.2903826982961
 20
91.32969608569441
 30
22.65117109718872
 10
105.6712054545529
 20
91.25468847851269
 30
21.25690364351211
 10
101.8635345750021
 20
91.17968087133093
 30
18.65585917132497
 10
98.05621799318714
 20
91.10468024348779
 30
16.05505672219989
 10
95.07777097596715
 20
91.02967961564464
 30
12.25967509784204
 10
93.45671142430871
 20
90.95467898780164
 30
7.943195182040491
 10
92.42279673130683
 20
90.90684345268281
 30
5.19013654059119
 10
91.94408575971062
 20
90.85900791756584
 30
2.233177995202956
 10
92.0323806444408
 20
90.81117238244706
 30
-0.7058768189876501
1001
ACAD_VIEW_EDGE_ID
1071
       87
1071
       -1
1071
        1
1071
        0
  0
SPLINE
  5
AAC
330
1F
100
AcDbEntity
  8
Visible Narrow
100
AcDbSpline
 70
     0
 71
     3
 72
    23
 73
    19
 74
     0
 42
0.000000001
 43
0.0000000001
 40
56.57990459896186
 40
56.57990459896186
 40
56.57990459896186
 40
56.57990459896186
 40
56.72013286718943
 40
56.72013286718943
 40
56.72013286718943
 40
57.33199881011358
 40
57.33199881011358
 40
57.33199881011358
 40
57.94381352013354
 40
57.94381352013354
 40
57.94381352013354
 40
58.55557771195775
 40
58.55557771195775
 40
58.55557771195775
 40
59.16729209968248
 40
59.16729209968248
 40
59.16729209968248
 40
59.72149725255167
 40
59.72149725255167
 40
59.72149725255167
 40
59.72149725255167
 10
137.1854987893361
 20
89.65662692790223
 30
0.7060364828238203
 10
137.1544199197046
 20
89.63944881396063
 30
1.761353935147269
 10
137.0494740036643
 20
89.62227070001913
 30
2.814398555509728
 10
136.8692817592905
 20
89.60509258607752
 30
3.854976899906653
 10
136.0830387363635
 20
89.5301383488397
 30
8.395391310841715
 10
133.8678054499428
 20
89.45518411160017
 30
12.67762270701564
 10
130.6162091574766
 20
89.38022987436246
 30
15.94268973005662
 10
127.3648851284429
 20
89.30528191320929
 30
19.20748336173156
 10
123.0922948919246
 20
89.2303339520561
 30
21.44030754326607
 10
118.5555909368973
 20
89.15538599090295
 30
22.24547996184569
 10
114.0192615823721
 20
89.08044421828462
 30
23.0505858964765
 10
109.2396710044646
 20
89.00550244566451
 30
22.42458950195109
 10
105.0636855872849
 20
88.93056067304438
 30
20.4784072457907
 10
100.8880401396486
 20
88.85562500148202
 30
18.53238342952591
 10
97.33504584663521
 20
88.78068932991778
 30
15.27531803286709
 10
95.03413895530099
 20
88.70575365835362
 30
11.28422155755543
 10
92.94954771298547
 20
88.63786293002098
 30
7.66834088415338
 10
91.90133825957079
 20
88.56997220168819
 30
3.464979275863346
 10
92.02630935943806
 20
88.5020814733555
 30
-0.7057806640915489
1001
ACAD_VIEW_EDGE_ID
1071
       87
1071
       -1
1071
        1
1071
        0
  0
SPLINE
  5
AAD
330
1F
100
AcDbEntity
  8
Visible Narrow
100
AcDbSpline
 70
     0
 71
     3
 72
    20
 73
    16
 74
     0
 42
0.000000001
 43
0.0000000001
 40
62.86308990614146
 40
62.86308990614146
 40
62.86308990614146
 40
62.86308990614146
 40
62.88083078401648
 40
62.88083078401648
 40
62.88083078401648
 40
63.49647651126844
 40
63.49647651126844
 40
63.49647651126844
 40
64.11194214559266
 40
64.11194214559266
 40
64.11194214559266
 40
64.72723072716096
 40
64.72723072716096
 40
64.72723072716096
 40
64.73842488347393
 40
64.73842488347393
 40
64.73842488347393
 40
64.73842488347393
 10
137.1894659964906
 20
87.34753601881065
 30
0.7056438065353441
 10
137.1853599957153
 20
87.34536274215614
 30
0.8391721448953472
 10
137.1800390836555
 20
87.34318946550352
 30
0.9726698978959699
 10
137.1734979219068
 20
87.34101618884901
 30
1.106116934692278
 10
136.9465058693689
 20
87.26559892395867
 30
5.737009419091816
 10
135.251216141132
 20
87.19018165906653
 30
10.28501527976219
 10
132.3916249465032
 20
87.11476439417614
 30
13.93459454230555
 10
129.5328702591828
 20
87.0393691908624
 30
17.58310620479048
 10
125.5239487302638
 20
86.96397398754866
 30
20.3165861560965
 10
121.0833348100091
 20
86.88857878423485
 30
21.64514316458824
 10
116.6439983338381
 20
86.81320527007423
 30
22.97331798329287
 10
111.7940628272786
 20
86.73783175591356
 30
22.89116658680231
 10
107.4022551631019
 20
86.66245824175282
 30
21.41340404208403
 10
107.3223534991316
 20
86.66108694554472
 30
21.38651860098437
 10
107.2426102897239
 20
86.65971564933467
 30
21.35917351719484
 10
107.163029756051
 20
86.65834435312651
 30
21.33137188228079
1001
ACAD_VIEW_EDGE_ID
1071
       87
1071
       -1
1071
        1
1071
        0
  0
SPLINE
  5
AAE
330
1F
100
AcDbEntity
  8
Visible Narrow
100
AcDbSpline
 70
     0
 71
     3
 72
    26
 73
    22
 74
     0
 42
0.000000001
 43
0.0000000001
 40
87.99583113485978
 40
87.99583113485978
 40
87.99583113485978
 40
87.99583113485978
 40
88.06873291528843
 40
88.06873291528843
 40
88.06873291528843
 40
88.68149458922777
 40
88.68149458922777
 40
88.68149458922777
 40
89.29401054267437
 40
89.29401054267437
 40
89.29401054267437
 40
89.90629235278785
 40
89.90629235278785
 40
89.90629235278785
 40
90.51835155076357
 40
90.51835155076357
 40
90.51835155076357
 40
91.13019962419693
 40
91.13019962419693
 40
91.13019962419693
 40
91.13742378844959
 40
91.13742378844959
 40
91.13742378844959
 40
91.13742378844959
 10
137.1881374052532
 20
78.11117238244813
 30
0.705847337551086
 10
137.1718152113204
 20
78.10224183580001
 30
1.254469192208004
 10
137.1352635892668
 20
78.09331128915188
 30
1.802513932081514
 10
137.0781920476234
 20
78.08438074250378
 30
2.348565765602358
 10
136.5984883533415
 20
78.00931677725142
 30
6.938297780356231
 10
134.6713198130451
 20
77.93425281199714
 30
11.36603657665736
 10
131.6392046536489
 20
77.85918884674484
 30
14.84483425138876
 10
128.6083053875786
 20
77.78415498251646
 30
18.32223691087184
 10
124.4873471400838
 20
77.7091211182881
 30
20.83544500166147
 10
120.008197277953
 20
77.63408725405966
 30
21.93812180372163
 10
115.5307596374728
 20
77.55908207264237
 30
23.04037709117413
 10
110.716027355847
 20
77.48407689122482
 30
22.728134444949
 10
106.4184607426992
 20
77.40907170980737
 30
21.05680690414488
 10
102.1224566298165
 20
77.33409379861715
 30
19.38608702110657
 10
98.36298271927944
 20
77.25911588742682
 30
16.36497928154546
 10
95.806765591045
 20
77.18413797623482
 30
12.52926419061252
 10
93.25143020786665
 20
77.10918592802895
 30
8.694872196523261
 10
91.910230258683
 20
77.03423387982113
 30
4.064054727613789
 10
92.02086645775443
 20
76.9592818316153
 30
-0.5424689634479434
 10
92.02217275274731
 20
76.95839686371018
 30
-0.5968587461782664
 10
92.02368137102132
 20
76.95751189580673
 30
-0.6512421967834963
 10
92.02539185704649
 20
76.95662692790145
 30
-0.7056179846398618
1001
ACAD_VIEW_EDGE_ID
1071
       87
1071
       -1
1071
        1
1071
        0
  0
SPLINE
  5
AAF
330
1F
100
AcDbEntity
  8
Visible Narrow
100
AcDbSpline
 70
     0
 71
     3
 72
    23
 73
    19
 74
     0
 42
0.000000001
 43
0.0000000001
 40
94.27901644203942
 40
94.27901644203942
 40
94.27901644203942
 40
94.27901644203942
 40
94.8221473914762
 40
94.8221473914762
 40
94.8221473914762
 40
95.43496601067859
 40
95.43496601067859
 40
95.43496601067859
 40
96.0472994549265
 40
96.0472994549265
 40
96.0472994549265
 40
96.65919391840105
 40
96.65919391840105
 40
96.65919391840105
 40
97.29099563483007
 40
97.29099563483007
 40
97.29099563483007
 40
97.42060909562921
 40
97.42060909562921
 40
97.42060909562921
 40
97.42060909562921
 10
137.1882424497048
 20
75.80208147335659
 30
0.7053256023486014
 10
137.0545459708385
 20
75.73554734687546
 30
4.792288286254108
 10
135.7975066510713
 20
75.66901322039419
 30
8.840946747689521
 10
133.5752076481435
 20
75.60247909391481
 30
12.27493484202074
 10
131.0677714435946
 20
75.52740815280529
 30
16.1495287028709
 10
127.3431383488219
 20
75.45233721169585
 30
19.22372331212039
 10
123.0634088428191
 20
75.37726627058614
 30
20.95104182989972
 10
118.7870676437356
 20
75.3022547639314
 30
22.67699281141783
 10
113.9762412260711
 20
75.22724325727662
 30
23.05030521795822
 10
109.4848330742129
 20
75.15223175062172
 30
22.00471751001908
 10
104.9966448049886
 20
75.07727401958546
 30
20.95987938207582
 10
100.848027394531
 20
75.00231628854752
 30
18.50303292316218
 10
97.77434540673631
 20
74.92735855751127
 30
15.06966727244699
 10
94.60066485957367
 20
74.84996216653897
 30
11.5246011855064
 10
92.59092610069959
 20
74.77256577556662
 30
6.954169331067317
 10
92.12359259418317
 20
74.69516938459432
 30
2.219051468764392
 10
92.02771961449396
 20
74.67929159600064
 30
1.247646995706402
 10
91.99675548747968
 20
74.6634138074053
 30
0.2703196347309297
 10
92.02901534157502
 20
74.64753601881179
 30
-0.7049852084650902
1001
ACAD_VIEW_EDGE_ID
1071
       87
1071
       -1
1071
        1
1071
        0
  0
SPLINE
  5
AB0
330
1F
100
AcDbEntity
  8
Visible Narrow
100
AcDbSpline
 70
     0
 71
     3
 72
    14
 73
    10
 74
     0
 42
0.000000001
 43
0.0000000001
 40
100.562201749219
 40
100.562201749219
 40
100.562201749219
 40
100.562201749219
 40
100.9685434743615
 40
100.9685434743615
 40
100.9685434743615
 40
101.5806431515881
 40
101.5806431515881
 40
101.5806431515881
 40
101.7136076498333
 40
101.7136076498333
 40
101.7136076498333
 40
101.7136076498333
 10
137.1830942072824
 20
73.49299056426511
 30
0.7048972532396585
 10
137.0833136102314
 20
73.44321326513946
 30
3.762930878443098
 10
136.3686176984552
 20
73.39343596601181
 30
6.80192866498346
 10
135.0718761795319
 20
73.34365866688611
 30
9.57377576735563
 10
133.1185078295307
 20
73.26867579694344
 30
13.74919416941284
 10
129.8533224145353
 20
73.1936929270008
 30
17.29921481313082
 10
125.855459092712
 20
73.1187100570581
 30
19.59417790717815
 10
124.9870157485689
 20
73.10242176276496
 30
20.09270556148722
 10
124.0853849414848
 20
73.08613346847348
 30
20.53340964213814
 10
123.1585158081539
 20
73.0698451741803
 30
20.91240472623825
1001
ACAD_VIEW_EDGE_ID
1071
       87
1071
       -1
1071
        1
1071
        0
  0
ARC
  5
AB8
330
1F
100
AcDbEntity
  8
Visible
100
AcDbCircle
 10
-114.6074721851619
 20
0.0000000114896705
 30
71.65834416098618
 40
22.39999947696925
210
0.0000000000000002
220
1.0
230
0.0
100
AcDbArc
 50
0.0
 51
180.0
  0
LINE
  5
AB9
330
1F
100
AcDbEntity
  8
Visible
100
AcDbLine
 10
121.6074721851618
 20
68.65834416098627
 30
0.0000000114896705
 11
121.6074721851618
 21
65.65834416098628
 31
0.0000000114896705
  0
LINE
  5
ABA
330
1F
100
AcDbEntity
  8
Visible
100
AcDbLine
 10
119.6074721851618
 20
63.65834416098627
 30
0.0000000114896705
 11
121.6074721851618
 21
65.65834416098628
 31
0.0000000114896705
  0
LINE
  5
ABB
330
1F
100
AcDbEntity
  8
Visible
100
AcDbLine
 10
109.6074721851618
 20
108.6583451609864
 30
0.0000000114896705
 11
109.6074721851618
 21
111.1081811609863
 31
0.0000000114896705
  0
LINE
  5
ABC
330
1F
100
AcDbEntity
  8
Visible
100
AcDbLine
 10
119.6074721851618
 20
108.6583451609864
 30
0.0000000114896705
 11
119.6074721851618
 21
111.1081811609863
 31
0.0000000114896705
  0
LINE
  5
ABD
330
1F
100
AcDbEntity
  8
Visible
100
AcDbLine
 10
105.6074721851618
 20
68.65834416098627
 30
0.0000000114896705
 11
103.6074721851618
 21
70.65834416098628
 31
0.0000000114896705
  0
LINE
  5
ABE
330
1F
100
AcDbEntity
  8
Visible
100
AcDbLine
 10
123.6074721851618
 20
68.65834416098627
 30
0.0000000114896705
 11
125.6074721851618
 21
70.65834416098628
 31
0.0000000114896705
  0
LINE
  5
ABF
330
1F
100
AcDbEntity
  8
Visible
100
AcDbLine
 10
125.6074721851618
 20
71.65834416098626
 30
0.0000000114896705
 11
125.6074721851618
 21
70.65834416098628
 31
0.0000000114896705
  0
LINE
  5
AC0
330
1F
100
AcDbEntity
  8
Visible
100
AcDbLine
 10
103.6074721851618
 20
71.65834416098626
 30
0.0000000114896705
 11
103.6074721851618
 21
70.65834416098628
 31
0.0000000114896705
  0
ARC
  5
AC1
330
1F
100
AcDbEntity
  8
Visible
100
AcDbCircle
 10
-80.10747118516178
 20
107.1583441609863
 30
-0.0000000114896705
 40
0.5
210
0.0
220
0.0
230
-1.0
100
AcDbArc
 50
270.0
 51
0.0
  0
ARC
  5
AC2
330
1F
100
AcDbEntity
  8
Visible
100
AcDbCircle
 10
-149.1074721851618
 20
107.1583441609863
 30
-0.0000000114896705
 40
0.5
210
0.0
220
0.0
230
-1.0
100
AcDbArc
 50
180.0
 51
270.0
  0
LINE
  5
AC3
330
1F
100
AcDbEntity
  8
Visible
100
AcDbLine
 10
149.6074721851618
 20
108.1583451609864
 30
0.0000000114896705
 11
149.6074721851618
 21
107.1583441609863
 31
0.0000000114896705
  0
LINE
  5
AC4
330
1F
100
AcDbEntity
  8
Visible
100
AcDbLine
 10
79.60747118516178
 20
108.1583451609864
 30
0.0000000114896705
 11
79.60747118516178
 21
107.1583441609863
 31
0.0000000114896705
  0
ARC
  5
AC5
330
1F
100
AcDbEntity
  8
Visible
100
AcDbCircle
 10
-80.10747118516178
 20
108.1583451609864
 30
-0.0000000114896705
 40
0.5
210
0.0
220
0.0
230
-1.0
100
AcDbArc
 50
0.0
 51
90.0
  0
ARC
  5
AC6
330
1F
100
AcDbEntity
  8
Visible
100
AcDbCircle
 10
-149.1074721851618
 20
108.1583451609864
 30
-0.0000000114896705
 40
0.5
210
0.0
220
0.0
230
-1.0
100
AcDbArc
 50
90.0
 51
180.0
  0
SPLINE
  5
AC7
330
1F
100
AcDbEntity
  8
Visible
100
AcDbSpline
 70
     0
 71
     3
 72
    14
 73
    10
 74
     0
 42
0.000000001
 43
0.0000000001
 40
0.0
 40
0.0
 40
0.0
 40
0.0
 40
0.0240164197682838
 40
0.0240164197682838
 40
0.0460445196162869
 40
0.0460445196162869
 40
0.0723646935420711
 40
0.0723646935420711
 40
0.0802608678944699
 40
0.0802608678944699
 40
0.0802608678944699
 40
0.0802608678944699
 10
90.79597197836438
 20
93.95834465114894
 30
0.0000000114896749
 10
90.79597197836438
 20
94.011162418133
 30
0.0601584996375078
 10
90.81029317457028
 20
94.06393170196984
 30
0.1214373574607221
 10
90.85030051316016
 20
94.14258237360201
 30
0.2470165228702368
 10
90.87407173753815
 20
94.17117832048214
 30
0.3117516964267688
 10
90.9207092865668
 20
94.2164073241595
 30
0.4592376821693587
 10
90.94298720419056
 20
94.23104456979428
 30
0.5436586830148787
 10
90.96692767813278
 20
94.24503750977711
 30
0.6542908618738377
 10
90.97215411181378
 20
94.2478983985304
 30
0.6799355665714535
 10
90.97712467402514
 20
94.25048706288666
 30
0.7056525905348191
1001
ACAD_VIEW_EDGE_ID
1071
   -77827
1071
       -1
1071
        1
1071
        0
  0
SPLINE
  5
AC8
330
1F
100
AcDbEntity
  8
Visible
100
AcDbSpline
 70
     0
 71
     3
 72
    14
 73
    10
 74
     0
 42
0.000000001
 43
0.0000000001
 40
0.0
 40
0.0
 40
0.0
 40
0.0
 40
0.024016419768284
 40
0.024016419768284
 40
0.0460445196162721
 40
0.0460445196162721
 40
0.0723646935420375
 40
0.0723646935420375
 40
0.0802608678944711
 40
0.0802608678944711
 40
0.0802608678944711
 40
0.0802608678944711
 10
90.79597197836438
 20
91.64925374205928
 30
0.0000000114896807
 10
90.79597197836438
 20
91.70207150904316
 30
0.0601584996375139
 10
90.81029317457028
 20
91.75484079287818
 30
0.1214373574607272
 10
90.85030051316016
 20
91.83349146451231
 30
0.2470165228702021
 10
90.87407173753815
 20
91.8620874113906
 30
0.3117516964266538
 10
90.9207092865668
 20
91.90731641506799
 30
0.4592376821691361
 10
90.94298720419056
 20
91.92195366070448
 30
0.543658683014615
 10
90.96692767813278
 20
91.93594660068564
 30
0.654290861873621
 10
90.97215411181378
 20
91.93880748943891
 30
0.6799355665713457
 10
90.97712467402514
 20
91.94139615379516
 30
0.7056525905348249
1001
ACAD_VIEW_EDGE_ID
1071
   -77828
1071
       -1
1071
        1
1071
        0
  0
SPLINE
  5
AC9
330
1F
100
AcDbEntity
  8
Visible
100
AcDbSpline
 70
     0
 71
     3
 72
    14
 73
    10
 74
     0
 42
0.000000001
 43
0.0000000001
 40
0.0
 40
0.0
 40
0.0
 40
0.0
 40
0.0240164197682842
 40
0.0240164197682842
 40
0.0460445196162715
 40
0.0460445196162715
 40
0.0723646935420543
 40
0.0723646935420543
 40
0.0802608678944708
 40
0.0802608678944708
 40
0.0802608678944708
 40
0.0802608678944708
 10
90.79597197836438
 20
89.34016283296783
 30
0.0000000114896866
 10
90.79597197836438
 20
89.39298059995172
 30
0.0601584996375203
 10
90.81029317457028
 20
89.44574988378851
 30
0.1214373574607323
 10
90.85030051316016
 20
89.52440055542083
 30
0.2470165228702058
 10
90.87407173753815
 20
89.55299650230093
 30
0.3117516964266627
 10
90.9207092865668
 20
89.5982255059765
 30
0.4592376821691949
 10
90.94298720419056
 20
89.61286275161299
 30
0.5436586830147303
 10
90.96692767813278
 20
89.62685569159599
 30
0.6542908618737392
 10
90.97215411181378
 20
89.6297165803492
 30
0.6799355665714073
 10
90.97712467402514
 20
89.63230524470352
 30
0.7056525905348307
1001
ACAD_VIEW_EDGE_ID
1071
   -77829
1071
       -1
1071
        1
1071
        0
  0
SPLINE
  5
ACA
330
1F
100
AcDbEntity
  8
Visible
100
AcDbSpline
 70
     0
 71
     3
 72
    14
 73
    10
 74
     0
 42
0.000000001
 43
0.0000000001
 40
0.0
 40
0.0
 40
0.0
 40
0.0
 40
0.0240164197682843
 40
0.0240164197682843
 40
0.0460445196162714
 40
0.0460445196162714
 40
0.0723646935420379
 40
0.0723646935420379
 40
0.0802608678944711
 40
0.0802608678944711
 40
0.0802608678944711
 40
0.0802608678944711
 10
90.79597197836438
 20
87.03107192387632
 30
0.0000000114896924
 10
90.79597197836438
 20
87.08388969086019
 30
0.0601584996375265
 10
90.81029317457028
 20
87.13665897469706
 30
0.1214373574607376
 10
90.85030051316016
 20
87.21530964633101
 30
0.2470165228702112
 10
90.87407173753815
 20
87.24390559320946
 30
0.3117516964266689
 10
90.9207092865668
 20
87.28913459688667
 30
0.459237682169151
 10
90.94298720419056
 20
87.30377184252146
 30
0.5436586830146217
 10
90.96692767813278
 20
87.31776478250433
 30
0.6542908618736308
 10
90.97215411181378
 20
87.32062567125758
 30
0.6799355665713591
 10
90.97712467402514
 20
87.32321433561386
 30
0.7056525905348368
1001
ACAD_VIEW_EDGE_ID
1071
   -77830
1071
       -1
1071
        1
1071
        0
  0
SPLINE
  5
ACB
330
1F
100
AcDbEntity
  8
Visible
100
AcDbSpline
 70
     0
 71
     3
 72
    14
 73
    10
 74
     0
 42
0.000000001
 43
0.0000000001
 40
0.0
 40
0.0
 40
0.0
 40
0.0
 40
0.0240164197682635
 40
0.0240164197682635
 40
0.046044519616285
 40
0.046044519616285
 40
0.0723646935421038
 40
0.0723646935421038
 40
0.0802608678945019
 40
0.0802608678945019
 40
0.0802608678945019
 40
0.0802608678945019
 10
90.79597197836438
 20
77.7947082875137
 30
0.0000000114895465
 10
90.79597197836438
 20
77.84752605449759
 30
0.0601584996373285
 10
90.81029317457028
 20
77.90029533833266
 30
0.1214373574604914
 10
90.85030051316016
 20
77.97894600996674
 30
0.2470165228699807
 10
90.87407173753815
 20
78.00754195684682
 30
0.3117516964265883
 10
90.9207092865668
 20
78.05277096052245
 30
0.4592376821693333
 10
90.94298720419056
 20
78.06740820615893
 30
0.5436586830149722
 10
90.96692767813278
 20
78.08140114614198
 30
0.6542908618740431
 10
90.97215411181378
 20
78.08426203489331
 30
0.6799355665716642
 10
90.97712467402514
 20
78.08685069924948
 30
0.7056525905350278
1001
ACAD_VIEW_EDGE_ID
1071
   -77834
1071
       -1
1071
        1
1071
        0
  0
SPLINE
  5
ACC
330
1F
100
AcDbEntity
  8
Visible
100
AcDbSpline
 70
     0
 71
     3
 72
    14
 73
    10
 74
     0
 42
0.000000001
 43
0.0000000001
 40
0.0
 40
0.0
 40
0.0
 40
0.0
 40
0.0240164197682684
 40
0.0240164197682684
 40
0.0460445196162178
 40
0.0460445196162178
 40
0.0723646935420046
 40
0.0723646935420046
 40
0.0802608678944723
 40
0.0802608678944723
 40
0.0802608678944723
 40
0.0802608678944723
 10
90.79597197836438
 20
75.48561737842224
 30
0.0000000114897216
 10
90.79597197836438
 20
75.53843514540611
 30
0.0601584996375158
 10
90.81029317457028
 20
75.59120442924298
 30
0.121437357460646
 10
90.85030051316016
 20
75.66985510087514
 30
0.2470165228699646
 10
90.87407173753815
 20
75.69845104775534
 30
0.3117516964263236
 10
90.9207092865668
 20
75.7436800514308
 30
0.4592376821687229
 10
90.94298720419056
 20
75.75831729706745
 30
0.5436586830142535
 10
90.96692767813278
 20
75.77231023705046
 30
0.6542908618734359
 10
90.97215411181378
 20
75.77517112580361
 30
0.6799355665712756
 10
90.97712467402514
 20
75.777759790158
 30
0.7056525905348654
1001
ACAD_VIEW_EDGE_ID
1071
   -77835
1071
       -1
1071
        1
1071
        0
  0
SPLINE
  5
ACD
330
1F
100
AcDbEntity
  8
Visible
100
AcDbSpline
 70
     0
 71
     3
 72
    14
 73
    10
 74
     0
 42
0.000000001
 43
0.0000000001
 40
0.0
 40
0.0
 40
0.0
 40
0.0
 40
0.0240164197682639
 40
0.0240164197682639
 40
0.0460445196162843
 40
0.0460445196162843
 40
0.0723646935421039
 40
0.0723646935421039
 40
0.0802608678945017
 40
0.0802608678945017
 40
0.0802608678945017
 40
0.0802608678945017
 10
90.79597197836438
 20
73.17652646933241
 30
0.0000000114895582
 10
90.79597197836438
 20
73.22934423631645
 30
0.060158499637341
 10
90.81029317457028
 20
73.28211352015145
 30
0.1214373574605016
 10
90.85030051316016
 20
73.36076419178542
 30
0.24701652286999
 10
90.87407173753815
 20
73.3893601386637
 30
0.3117516964266036
 10
90.9207092865668
 20
73.43458914234118
 30
0.4592376821693471
 10
90.94298720419056
 20
73.44922638797581
 30
0.5436586830149808
 10
90.96692767813278
 20
73.4632193279588
 30
0.654290861874054
 10
90.97215411181378
 20
73.46608021671213
 30
0.6799355665716762
 10
90.97712467402514
 20
73.46866888106815
 30
0.7056525905350389
1001
ACAD_VIEW_EDGE_ID
1071
   -77836
1071
       -1
1071
        1
1071
        0
  0
SPLINE
  5
ACE
330
1F
100
AcDbEntity
  8
Visible
100
AcDbSpline
 70
     0
 71
     3
 72
    12
 73
     8
 74
     0
 42
0.000000001
 43
0.0000000001
 40
0.0
 40
0.0
 40
0.0
 40
0.0
 40
0.0378307857297528
 40
0.0378307857297528
 40
0.0583688813475579
 40
0.0583688813475579
 40
0.0802286663706425
 40
0.0802286663706425
 40
0.0802286663706425
 40
0.0802286663706425
 10
138.2378192827031
 20
93.09594160833992
 30
-0.7056525675555646
 10
138.2616333812234
 20
93.08353924712296
 30
-0.5824416074442987
 10
138.2930688150386
 20
93.06600193224344
 30
-0.4592376828325246
 10
138.3506690428253
 20
93.00473717800864
 30
-0.2837851809331406
 10
138.3724531996336
 20
92.97561131947743
 30
-0.2245309305814993
 10
138.4072639556866
 20
92.90000402429482
 30
-0.1103168227324879
 10
138.418971978364
 20
92.85187401553352
 30
-0.0547563439917661
 10
138.418971978364
 20
92.80379919660422
 30
0.0000000114897478
1001
ACAD_VIEW_EDGE_ID
1071
   -77839
1071
       -1
1071
        1
1071
        0
  0
SPLINE
  5
ACF
330
1F
100
AcDbEntity
  8
Visible
100
AcDbSpline
 70
     0
 71
     3
 72
    12
 73
     8
 74
     0
 42
0.000000001
 43
0.0000000001
 40
0.0
 40
0.0
 40
0.0
 40
0.0
 40
0.0378307857297517
 40
0.0378307857297517
 40
0.058368881347556
 40
0.058368881347556
 40
0.0802286663706308
 40
0.0802286663706308
 40
0.0802286663706308
 40
0.0802286663706308
 10
138.2378192827031
 20
90.78685069925017
 30
-0.7056525675555707
 10
138.2616333812234
 20
90.77444833803147
 30
-0.5824416074443084
 10
138.2930688150386
 20
90.75691102315191
 30
-0.459237682832529
 10
138.3506690428253
 20
90.69564626891716
 30
-0.283785180933147
 10
138.3724531996336
 20
90.66652041038596
 30
-0.2245309305815044
 10
138.4072639556866
 20
90.59091311520331
 30
-0.1103168227325182
 10
138.418971978364
 20
90.54278310644191
 30
-0.0547563439919166
 10
138.418971978364
 20
90.49470828751267
 30
0.0000000114895728
1001
ACAD_VIEW_EDGE_ID
1071
   -77840
1071
       -1
1071
        1
1071
        0
  0
SPLINE
  5
AD0
330
1F
100
AcDbEntity
  8
Visible
100
AcDbSpline
 70
     0
 71
     3
 72
    12
 73
     8
 74
     0
 42
0.000000001
 43
0.0000000001
 40
0.0
 40
0.0
 40
0.0
 40
0.0
 40
0.0378307857297526
 40
0.0378307857297526
 40
0.0583688813475577
 40
0.0583688813475577
 40
0.0802286663706429
 40
0.0802286663706429
 40
0.0802286663706429
 40
0.0802286663706429
 10
138.2378192827031
 20
88.47775979015867
 30
-0.7056525675555766
 10
138.2616333812234
 20
88.46535742894165
 30
-0.5824416074443111
 10
138.2930688150386
 20
88.44782011406037
 30
-0.4592376828325361
 10
138.3506690428253
 20
88.38655535982733
 30
-0.2837851809331515
 10
138.3724531996336
 20
88.35742950129612
 30
-0.2245309305815117
 10
138.4072639556866
 20
88.28182220611157
 30
-0.1103168227324976
 10
138.418971978364
 20
88.23369219735045
 30
-0.0547563439917792
 10
138.418971978364
 20
88.18561737842291
 30
0.0000000114897361
1001
ACAD_VIEW_EDGE_ID
1071
   -77841
1071
       -1
1071
        1
1071
        0
  0
SPLINE
  5
AD1
330
1F
100
AcDbEntity
  8
Visible
100
AcDbSpline
 70
     0
 71
     3
 72
    12
 73
     8
 74
     0
 42
0.000000001
 43
0.0000000001
 40
0.0
 40
0.0
 40
0.0
 40
0.0
 40
0.0378307857297512
 40
0.0378307857297512
 40
0.0583688813475405
 40
0.0583688813475405
 40
0.0802286663706299
 40
0.0802286663706299
 40
0.0802286663706299
 40
0.0802286663706299
 10
138.2378192827031
 20
76.93230524470468
 30
-0.7056525675556051
 10
138.2616333812234
 20
76.91990288348759
 30
-0.5824416074443444
 10
138.2930688150386
 20
76.90236556860631
 30
-0.4592376828325641
 10
138.3506690428253
 20
76.84110081437146
 30
-0.2837851809332257
 10
138.3724531996336
 20
76.8119749558402
 30
-0.2245309305816723
 10
138.4072639556866
 20
76.73636766065775
 30
-0.1103168227326782
 10
138.418971978364
 20
76.68823765189628
 30
-0.0547563439919881
 10
138.418971978364
 20
76.64016283296698
 30
0.0000000114895378
1001
ACAD_VIEW_EDGE_ID
1071
   -77846
1071
       -1
1071
        1
1071
        0
  0
SPLINE
  5
AD2
330
1F
100
AcDbEntity
  8
Visible
100
AcDbSpline
 70
     0
 71
     3
 72
    12
 73
     8
 74
     0
 42
0.000000001
 43
0.0000000001
 40
0.0
 40
0.0
 40
0.0
 40
0.0
 40
0.0378307857297532
 40
0.0378307857297532
 40
0.0583688813475441
 40
0.0583688813475441
 40
0.0802286663706272
 40
0.0802286663706272
 40
0.0802286663706272
 40
0.0802286663706272
 10
138.2378192827031
 20
74.62321433561314
 30
-0.7056525675554433
 10
138.2616333812234
 20
74.6108119743961
 30
-0.5824416074441763
 10
138.2930688150386
 20
74.59327465951654
 30
-0.4592376828323996
 10
138.3506690428253
 20
74.53200990528168
 30
-0.2837851809330635
 10
138.3724531996336
 20
74.50288404675061
 30
-0.2245309305815081
 10
138.4072639556866
 20
74.42727675156615
 30
-0.1103168227325383
 10
138.418971978364
 20
74.37914674280481
 30
-0.054756343991809
 10
138.418971978364
 20
74.33107192387748
 30
0.0000000114897011
1001
ACAD_VIEW_EDGE_ID
1071
   -77847
1071
       -1
1071
        1
1071
        0
  0
LINE
  5
AD3
330
1F
100
AcDbEntity
  8
Visible
100
AcDbLine
 10
90.97712418516179
 20
94.25048716098634
 30
0.7056530114896705
 11
91.76025118516184
 21
94.6583461609863
 31
0.7056300114896707
  0
LINE
  5
AD4
330
1F
100
AcDbEntity
  8
Visible
100
AcDbLine
 10
90.97712418516179
 20
91.94139616098631
 30
0.7056530114896705
 11
92.02537518516177
 21
92.4873351609863
 31
0.7056230114896706
  0
LINE
  5
AD5
330
1F
100
AcDbEntity
  8
Visible
100
AcDbLine
 10
90.97712418516179
 20
89.63230516098631
 30
0.7056530114896705
 11
92.02537518516177
 21
90.1782441609863
 31
0.7056230114896706
  0
LINE
  5
AD6
330
1F
100
AcDbEntity
  8
Visible
100
AcDbLine
 10
90.97712418516179
 20
87.32321416098629
 30
0.7056530114896705
 11
92.02537518516177
 21
87.86915316098626
 31
0.7056230114896706
  0
LINE
  5
AD7
330
1F
100
AcDbEntity
  8
Visible
100
AcDbLine
 10
90.97712418516179
 20
78.08685116098629
 30
0.7056530114896705
 11
92.02537518516177
 21
78.63278916098633
 31
0.7056230114896706
  0
LINE
  5
AD8
330
1F
100
AcDbEntity
  8
Visible
100
AcDbLine
 10
90.97712418516179
 20
75.77776016098633
 30
0.7056530114896705
 11
92.02537518516177
 21
76.32369916098635
 31
0.7056230114896706
  0
LINE
  5
AD9
330
1F
100
AcDbEntity
  8
Visible
100
AcDbLine
 10
90.97712418516179
 20
73.46866916098631
 30
0.7056530114896705
 11
92.02537518516177
 21
74.01460816098634
 31
0.7056230114896706
  0
LINE
  5
ADA
330
1F
100
AcDbEntity
  8
Visible
100
AcDbLine
 10
137.1895691851618
 20
93.64188016098635
 30
-0.7056229885103295
 11
138.2378191851618
 21
93.09594116098637
 31
-0.7056529885103294
  0
LINE
  5
ADB
330
1F
100
AcDbEntity
  8
Visible
100
AcDbLine
 10
137.1895691851618
 20
91.3327891609863
 30
-0.7056229885103295
 11
138.2378191851618
 21
90.78685116098634
 31
-0.7056529885103294
  0
LINE
  5
ADC
330
1F
100
AcDbEntity
  8
Visible
100
AcDbLine
 10
137.1895691851618
 20
89.02369916098635
 30
-0.7056229885103295
 11
138.2378191851618
 21
88.47776016098633
 31
-0.7056529885103294
  0
LINE
  5
ADD
330
1F
100
AcDbEntity
  8
Visible
100
AcDbLine
 10
137.1895691851618
 20
86.71460816098633
 30
-0.7056229885103295
 11
137.2975961851617
 21
86.65834616098633
 31
-0.7056259885103296
  0
LINE
  5
ADE
330
1F
100
AcDbEntity
  8
Visible
100
AcDbLine
 10
137.1895691851618
 20
77.47824416098629
 30
-0.7056229885103295
 11
138.2378191851618
 21
76.9323051609863
 31
-0.7056529885103294
  0
LINE
  5
ADF
330
1F
100
AcDbEntity
  8
Visible
100
AcDbLine
 10
137.1895691851618
 20
75.16915316098625
 30
-0.7056229885103295
 11
138.2378191851618
 21
74.62321416098629
 31
-0.7056529885103294
  0
SPLINE
  5
AE0
330
1F
100
AcDbEntity
  8
Visible
100
AcDbSpline
 70
     0
 71
     3
 72
    12
 73
     8
 74
     0
 42
0.000000001
 43
0.0000000001
 40
0.0
 40
0.0
 40
0.0
 40
0.0
 40
0.0371087259167674
 40
0.0371087259167674
 40
0.0573870732854273
 40
0.0573870732854273
 40
0.0789750651505956
 40
0.0789750651505956
 40
0.0789750651505956
 40
0.0789750651505956
 10
92.02537468716718
 20
92.48733510166969
 30
0.7056227600873905
 10
92.04154810705539
 20
92.49575856037642
 30
0.5832785523918975
 10
92.06734406291213
 20
92.50927341163999
 30
0.4604476973629346
 10
92.11960337053602
 20
92.56462561123342
 30
0.2849567963873525
 10
92.14023022717949
 20
92.59189347155304
 30
0.2253780546394545
 10
92.17356790498673
 20
92.66404034236371
 30
0.1106659073996254
 10
92.18497197836365
 20
92.71054474083692
 30
0.054933285891338
 10
92.18497197836365
 20
92.7570267057375
 30
0.0000000114896288
1001
ACAD_VIEW_EDGE_ID
1071
   -81923
1071
       -1
1071
        1
1071
        0
  0
SPLINE
  5
AE1
330
1F
100
AcDbEntity
  8
Visible
100
AcDbSpline
 70
     0
 71
     3
 72
    12
 73
     8
 74
     0
 42
0.000000001
 43
0.0000000001
 40
0.0
 40
0.0
 40
0.0
 40
0.0
 40
0.0371087259167674
 40
0.0371087259167674
 40
0.0573870732854271
 40
0.0573870732854271
 40
0.0789750651505955
 40
0.0789750651505955
 40
0.0789750651505955
 40
0.0789750651505955
 10
92.02537468716718
 20
90.17824419258005
 30
0.7056227600873961
 10
92.04154810705539
 20
90.18666765128479
 30
0.583278552391903
 10
92.06734406291213
 20
90.20018250254841
 30
0.4604476973629402
 10
92.11960337053602
 20
90.25553470214196
 30
0.2849567963873583
 10
92.14023022717949
 20
90.28280256246151
 30
0.2253780546394598
 10
92.17356790498673
 20
90.35494943327213
 30
0.1106659073996304
 10
92.18497197836365
 20
90.40145383174721
 30
0.0549332858913438
 10
92.18497197836365
 20
90.44793579664595
 30
0.0000000114896343
1001
ACAD_VIEW_EDGE_ID
1071
   -81924
1071
       -1
1071
        1
1071
        0
  0
SPLINE
  5
AE2
330
1F
100
AcDbEntity
  8
Visible
100
AcDbSpline
 70
     0
 71
     3
 72
    12
 73
     8
 74
     0
 42
0.000000001
 43
0.0000000001
 40
0.0
 40
0.0
 40
0.0
 40
0.0
 40
0.0371087259167674
 40
0.0371087259167674
 40
0.0573870732854271
 40
0.0573870732854271
 40
0.0789750651505956
 40
0.0789750651505956
 40
0.0789750651505956
 40
0.0789750651505956
 10
92.02537468716718
 20
87.86915328348854
 30
0.7056227600874018
 10
92.04154810705539
 20
87.87757674219514
 30
0.5832785523919084
 10
92.06734406291213
 20
87.89109159345683
 30
0.4604476973629458
 10
92.11960337053602
 20
87.94644379305045
 30
0.2849567963873636
 10
92.14023022717949
 20
87.97371165336995
 30
0.2253780546394656
 10
92.17356790498673
 20
88.04585852418247
 30
0.1106659073996353
 10
92.18497197836365
 20
88.09236292265559
 30
0.0549332858913496
 10
92.18497197836365
 20
88.13884488755624
 30
0.0000000114896398
1001
ACAD_VIEW_EDGE_ID
1071
   -81925
1071
       -1
1071
        1
1071
        0
  0
SPLINE
  5
AE3
330
1F
100
AcDbEntity
  8
Visible
100
AcDbSpline
 70
     0
 71
     3
 72
     8
 73
     4
 74
     0
 42
0.000000001
 43
0.0000000001
 40
0.0
 40
0.0
 40
0.0
 40
0.0
 40
0.022960712218673
 40
0.022960712218673
 40
0.022960712218673
 40
0.022960712218673
 10
92.02537468716718
 20
78.63278964712415
 30
0.7056227600874238
 10
92.03538185476601
 20
78.63800159139029
 30
0.6299233100222709
 10
92.04907292519743
 20
78.64516273028792
 30
0.5540375513274971
 10
92.06606283154128
 20
78.65834423391898
 30
0.4802959597034357
1001
ACAD_VIEW_EDGE_ID
1071
   -81929
1071
       -1
1071
        1
1071
        0
  0
SPLINE
  5
AE4
330
1F
100
AcDbEntity
  8
Visible
100
AcDbSpline
 70
     0
 71
     3
 72
    12
 73
     8
 74
     0
 42
0.000000001
 43
0.0000000001
 40
0.0
 40
0.0
 40
0.0
 40
0.0
 40
0.0371087259167525
 40
0.0371087259167525
 40
0.0573870732854243
 40
0.0573870732854243
 40
0.0789750651505812
 40
0.0789750651505812
 40
0.0789750651505812
 40
0.0789750651505812
 10
92.02537468716718
 20
76.32369873803448
 30
0.7056227600872687
 10
92.04154810705539
 20
76.33212219673916
 30
0.5832785523918255
 10
92.06734406291213
 20
76.34563704800294
 30
0.4604476973629272
 10
92.11960337053602
 20
76.40098924759628
 30
0.2849567963873544
 10
92.14023022717949
 20
76.42825710791605
 30
0.2253780546393644
 10
92.17356790498673
 20
76.50040397872665
 30
0.1106659073995376
 10
92.18497197836365
 20
76.54690837720162
 30
0.0549332858913475
 10
92.18497197836365
 20
76.59339034210026
 30
0.0000000114896673
1001
ACAD_VIEW_EDGE_ID
1071
   -81930
1071
       -1
1071
        1
1071
        0
  0
SPLINE
  5
AE5
330
1F
100
AcDbEntity
  8
Visible
100
AcDbSpline
 70
     0
 71
     3
 72
    12
 73
     8
 74
     0
 42
0.000000001
 43
0.0000000001
 40
0.0
 40
0.0
 40
0.0
 40
0.0
 40
0.0371087259167832
 40
0.0371087259167832
 40
0.0573870732854592
 40
0.0573870732854592
 40
0.078975065150611
 40
0.078975065150611
 40
0.078975065150611
 40
0.078975065150611
 10
92.02537468716718
 20
74.01460782894296
 30
0.7056227600874349
 10
92.04154810705539
 20
74.0230312876495
 30
0.5832785523918896
 10
92.06734406291213
 20
74.03654613891134
 30
0.4604476973628628
 10
92.11960337053602
 20
74.09189833850476
 30
0.2849567963871893
 10
92.14023022717949
 20
74.11916619882426
 30
0.2253780546392162
 10
92.17356790498673
 20
74.19131306963689
 30
0.1106659073994028
 10
92.18497197836365
 20
74.23781746811012
 30
0.0549332858911808
 10
92.18497197836365
 20
74.2842994330106
 30
0.0000000114895134
1001
ACAD_VIEW_EDGE_ID
1071
   -81931
1071
       -1
1071
        1
1071
        0
  0
SPLINE
  5
AE6
330
1F
100
AcDbEntity
  8
Visible
100
AcDbSpline
 70
     0
 71
     3
 72
    14
 73
    10
 74
     0
 42
0.000000001
 43
0.0000000001
 40
0.0
 40
0.0
 40
0.0
 40
0.0
 40
0.0241470756742646
 40
0.0241470756742646
 40
0.0458979919086646
 40
0.0458979919086646
 40
0.0712691547221047
 40
0.0712691547221047
 40
0.0790147049759689
 40
0.0790147049759689
 40
0.0790147049759689
 40
0.0790147049759689
 10
137.0299719783647
 20
93.91157216028236
 30
0.0000000114896353
 10
137.0299719783647
 20
93.85958013013382
 30
-0.0614451633231945
 10
137.0444807706258
 20
93.80771257887072
 30
-0.1240830735464282
 10
137.0834009690657
 20
93.7329236735143
 30
-0.251749786438172
 10
137.1057288096395
 20
93.70677998303397
 30
-0.3170169842183959
 10
137.1468308794206
 20
93.66750552455171
 30
-0.4634418850736541
 10
137.1649221830153
 20
93.65591999819784
 30
-0.5461068641248525
 10
137.1824744261099
 20
93.64566859166314
 30
-0.6546083312300242
 10
137.1861934587937
 20
93.64363874976994
 30
-0.6800863387122323
 10
137.1895692695611
 20
93.64188055621644
 30
-0.7056227371081271
1001
ACAD_VIEW_EDGE_ID
1071
   -81934
1071
       -1
1071
        1
1071
        0
  0
SPLINE
  5
AE7
330
1F
100
AcDbEntity
  8
Visible
100
AcDbSpline
 70
     0
 71
     3
 72
    14
 73
    10
 74
     0
 42
0.000000001
 43
0.0000000001
 40
0.0
 40
0.0
 40
0.0
 40
0.0
 40
0.0241470756742648
 40
0.0241470756742648
 40
0.045897991908664
 40
0.045897991908664
 40
0.0712691547221201
 40
0.0712691547221201
 40
0.0790147049759684
 40
0.0790147049759684
 40
0.0790147049759684
 40
0.0790147049759684
 10
137.0299719783647
 20
91.60248125119251
 30
0.0000000114896298
 10
137.0299719783647
 20
91.55048922104215
 30
-0.0614451633232004
 10
137.0444807706258
 20
91.49862166977916
 30
-0.1240830735464329
 10
137.0834009690657
 20
91.42383276442265
 30
-0.2517497864381757
 10
137.1057288096395
 20
91.39768907394245
 30
-0.3170169842184042
 10
137.1468308794206
 20
91.35841461546013
 30
-0.4634418850737089
 10
137.1649221830153
 20
91.34682908910813
 30
-0.5461068641249654
 10
137.1824744261099
 20
91.33657768257144
 30
-0.6546083312301382
 10
137.1861934587937
 20
91.3345478406803
 30
-0.6800863387122901
 10
137.1895692695611
 20
91.33278964712493
 30
-0.7056227371081324
1001
ACAD_VIEW_EDGE_ID
1071
   -81935
1071
       -1
1071
        1
1071
        0
  0
SPLINE
  5
AE8
330
1F
100
AcDbEntity
  8
Visible
100
AcDbSpline
 70
     0
 71
     3
 72
    14
 73
    10
 74
     0
 42
0.000000001
 43
0.0000000001
 40
0.0
 40
0.0
 40
0.0
 40
0.0
 40
0.024147075674265
 40
0.024147075674265
 40
0.0458979919086638
 40
0.0458979919086638
 40
0.0712691547221201
 40
0.0712691547221201
 40
0.0790147049759684
 40
0.0790147049759684
 40
0.0790147049759684
 40
0.0790147049759684
 10
137.0299719783647
 20
89.293390342101
 30
0.0000000114896243
 10
137.0299719783647
 20
89.24139831195068
 30
-0.0614451633232065
 10
137.0444807706258
 20
89.18953076068945
 30
-0.1240830735464375
 10
137.0834009690657
 20
89.11474185533315
 30
-0.2517497864381804
 10
137.1057288096395
 20
89.08859816485097
 30
-0.317016984218411
 10
137.1468308794206
 20
89.04932370637045
 30
-0.4634418850737144
 10
137.1649221830153
 20
89.03773818001665
 30
-0.5461068641249704
 10
137.1824744261099
 20
89.02748677348178
 30
-0.654608331230144
 10
137.1861934587937
 20
89.02545693158865
 30
-0.6800863387122957
 10
137.1895692695611
 20
89.02369873803344
 30
-0.7056227371081381
1001
ACAD_VIEW_EDGE_ID
1071
   -81936
1071
       -1
1071
        1
1071
        0
  0
SPLINE
  5
AE9
330
1F
100
AcDbEntity
  8
Visible
100
AcDbSpline
 70
     0
 71
     3
 72
    14
 73
    10
 74
     0
 42
0.000000001
 43
0.0000000001
 40
0.0
 40
0.0
 40
0.0
 40
0.0
 40
0.0241470756742653
 40
0.0241470756742653
 40
0.0458979919086491
 40
0.0458979919086491
 40
0.0712691547220886
 40
0.0712691547220886
 40
0.0790147049759696
 40
0.0790147049759696
 40
0.0790147049759696
 40
0.0790147049759696
 10
137.0299719783647
 20
86.98429943300945
 30
0.0000000114896188
 10
137.0299719783647
 20
86.93230740286102
 30
-0.0614451633232129
 10
137.0444807706258
 20
86.88043985159797
 30
-0.1240830735464419
 10
137.0834009690657
 20
86.80565094624162
 30
-0.2517497864381442
 10
137.1057288096395
 20
86.77950725576115
 30
-0.3170169842183057
 10
137.1468308794206
 20
86.74023279727897
 30
-0.4634418850735049
 10
137.1649221830153
 20
86.728647270925
 30
-0.5461068641247113
 10
137.1824744261099
 20
86.71839586439032
 30
-0.6546083312299335
 10
137.1861934587937
 20
86.71636602249717
 30
-0.6800863387121935
 10
137.1895692695611
 20
86.71460782894362
 30
-0.7056227371081436
1001
ACAD_VIEW_EDGE_ID
1071
   -81937
1071
       -1
1071
        1
1071
        0
  0
SPLINE
  5
AEA
330
1F
100
AcDbEntity
  8
Visible
100
AcDbSpline
 70
     0
 71
     3
 72
    14
 73
    10
 74
     0
 42
0.000000001
 43
0.0000000001
 40
0.0
 40
0.0
 40
0.0
 40
0.0
 40
0.0241470756742659
 40
0.0241470756742659
 40
0.0458979919086484
 40
0.0458979919086484
 40
0.0712691547220891
 40
0.0712691547220891
 40
0.0790147049759539
 40
0.0790147049759539
 40
0.0790147049759539
 40
0.0790147049759539
 10
137.0299719783647
 20
77.747935796647
 30
0.0000000114895968
 10
137.0299719783647
 20
77.69594376649664
 30
-0.0614451633232363
 10
137.0444807706258
 20
77.64407621523545
 30
-0.1240830735464614
 10
137.0834009690657
 20
77.56928730987718
 30
-0.2517497864381633
 10
137.1057288096395
 20
77.54314361939695
 30
-0.3170169842183319
 10
137.1468308794206
 20
77.50386916091454
 30
-0.4634418850735298
 10
137.1649221830153
 20
77.49228363456253
 30
-0.5461068641247297
 10
137.1824744261099
 20
77.48203222802598
 30
-0.6546083312299032
 10
137.1861934587937
 20
77.4800023861347
 30
-0.6800863387121085
 10
137.1895692695611
 20
77.47824419257934
 30
-0.7056227371080053
1001
ACAD_VIEW_EDGE_ID
1071
   -81941
1071
       -1
1071
        1
1071
        0
  0
SPLINE
  5
AEB
330
1F
100
AcDbEntity
  8
Visible
100
AcDbSpline
 70
     0
 71
     3
 72
    14
 73
    10
 74
     0
 42
0.000000001
 43
0.0000000001
 40
0.0
 40
0.0
 40
0.0
 40
0.0
 40
0.0241470756742618
 40
0.0241470756742618
 40
0.0458979919087104
 40
0.0458979919087104
 40
0.0712691547221831
 40
0.0712691547221831
 40
0.0790147049759815
 40
0.0790147049759815
 40
0.0790147049759815
 40
0.0790147049759815
 10
137.0299719783647
 20
75.43884488755551
 30
0.0000000114897506
 10
137.0299719783647
 20
75.38685285740516
 30
-0.061445163323072
 10
137.0444807706258
 20
75.33498530614379
 30
-0.1240830735463245
 10
137.0834009690657
 20
75.26019640078752
 30
-0.2517497864381876
 10
137.1057288096395
 20
75.23405271030545
 30
-0.3170169842186024
 10
137.1468308794206
 20
75.19477825182477
 30
-0.4634418850741299
 10
137.1649221830153
 20
75.183192725471
 30
-0.5461068641254292
 10
137.1824744261099
 20
75.17294131893621
 30
-0.6546083312304996
 10
137.1861934587937
 20
75.17091147704312
 30
-0.6800863387124934
 10
137.1895692695611
 20
75.16915328348787
 30
-0.7056227371081709
1001
ACAD_VIEW_EDGE_ID
1071
   -81942
1071
       -1
1071
        1
1071
        0
  0
SPLINE
  5
AEC
330
1F
100
AcDbEntity
  8
Visible
100
AcDbSpline
 70
     0
 71
     3
 72
     8
 73
     4
 74
     0
 42
0.000000001
 43
0.0000000001
 40
0.0
 40
0.0
 40
0.0
 40
0.0
 40
0.0093983869920442
 40
0.0093983869920442
 40
0.0093983869920442
 40
0.0093983869920442
 10
137.0299719783647
 20
73.12975397846398
 30
0.0000000114895858
 10
137.0299719783647
 20
73.1095179371962
 30
-0.0239153287973645
 10
137.031987428692
 20
73.08924907005835
 30
-0.0478817425753402
 10
137.0357984796205
 20
73.0698451741803
 30
-0.0721800055344312
1001
ACAD_VIEW_EDGE_ID
1071
   -81943
1071
       -1
1071
        1
1071
        0
  0
LINE
  5
AED
330
1F
100
AcDbEntity
  8
Visible
100
AcDbLine
 10
137.0299721851618
 20
94.00511716098632
 30
0.0000000114896705
 11
137.0299721851618
 21
93.91157216098632
 31
0.0000000114896705
  0
LINE
  5
AEE
330
1F
100
AcDbEntity
  8
Visible
100
AcDbLine
 10
137.0299721851618
 20
91.69602616098629
 30
0.0000000114896705
 11
137.0299721851618
 21
91.60248116098628
 31
0.0000000114896705
  0
LINE
  5
AEF
330
1F
100
AcDbEntity
  8
Visible
100
AcDbLine
 10
137.0299721851618
 20
89.38693516098631
 30
0.0000000114896705
 11
137.0299721851618
 21
89.29339016098628
 31
0.0000000114896705
  0
LINE
  5
AF0
330
1F
100
AcDbEntity
  8
Visible
100
AcDbLine
 10
137.0299721851618
 20
87.07784416098631
 30
0.0000000114896705
 11
137.0299721851618
 21
86.98429916098637
 31
0.0000000114896705
  0
LINE
  5
AF1
330
1F
100
AcDbEntity
  8
Visible
100
AcDbLine
 10
137.0299721851618
 20
77.84148116098631
 30
0.0000000114896705
 11
137.0299721851618
 21
77.74793616098626
 31
0.0000000114896705
  0
LINE
  5
AF2
330
1F
100
AcDbEntity
  8
Visible
100
AcDbLine
 10
137.0299721851618
 20
75.53239016098629
 30
0.0000000114896705
 11
137.0299721851618
 21
75.43884516098635
 31
0.0000000114896705
  0
LINE
  5
AF3
330
1F
100
AcDbEntity
  8
Visible
100
AcDbLine
 10
137.0299721851618
 20
73.22329916098637
 30
0.0000000114896705
 11
137.0299721851618
 21
73.1297541609863
 31
0.0000000114896705
  0
LINE
  5
AF4
330
1F
100
AcDbEntity
  8
Visible
100
AcDbLine
 10
92.18497218516182
 20
92.85057216098634
 30
0.0000000114896705
 11
92.18497218516182
 21
92.75702716098631
 31
0.0000000114896705
  0
LINE
  5
AF5
330
1F
100
AcDbEntity
  8
Visible
100
AcDbLine
 10
92.18497218516182
 20
90.54148116098629
 30
0.0000000114896705
 11
92.18497218516182
 21
90.44793616098628
 31
0.0000000114896705
  0
LINE
  5
AF6
330
1F
100
AcDbEntity
  8
Visible
100
AcDbLine
 10
92.18497218516182
 20
88.23239016098629
 30
0.0000000114896705
 11
92.18497218516182
 21
88.13884516098632
 31
0.0000000114896705
  0
LINE
  5
AF7
330
1F
100
AcDbEntity
  8
Visible
100
AcDbLine
 10
92.18497218516182
 20
76.68693516098628
 30
0.0000000114896705
 11
92.18497218516182
 21
76.59339016098626
 31
0.0000000114896705
  0
LINE
  5
AF8
330
1F
100
AcDbEntity
  8
Visible
100
AcDbLine
 10
92.18497218516182
 20
74.37784416098631
 30
0.0000000114896705
 11
92.18497218516182
 21
74.28429916098635
 31
0.0000000114896705
  0
SPLINE
  5
AF9
330
1F
100
AcDbEntity
  8
Visible
100
AcDbSpline
 70
     0
 71
     3
 72
    14
 73
    10
 74
     0
 42
0.000000001
 43
0.0000000001
 40
0.0
 40
0.0
 40
0.0
 40
0.0
 40
0.0241470756742648
 40
0.0241470756742648
 40
0.0458979919086637
 40
0.0458979919086637
 40
0.07126915472212
 40
0.07126915472212
 40
0.0790147049759684
 40
0.0790147049759684
 40
0.0790147049759684
 40
0.0790147049759684
 10
92.18497197836365
 20
92.85057168747087
 30
0.0000000114896288
 10
92.18497197836365
 20
92.90256371762124
 30
-0.0614451633232014
 10
92.17046318610249
 20
92.95443126888251
 30
-0.1240830735464337
 10
92.1315429876626
 20
93.02922017423901
 30
-0.251749786438176
 10
92.10921514708887
 20
93.05536386472098
 30
-0.3170169842184062
 10
92.06811307730765
 20
93.09463832320153
 30
-0.4634418850737098
 10
92.05002177371312
 20
93.10622384955543
 30
-0.5461068641249662
 10
92.03246953061865
 20
93.11647525609018
 30
-0.6546083312301399
 10
92.02875049793473
 20
93.11850509798315
 30
-0.6800863387122905
 10
92.02537468716718
 20
93.12026329153864
 30
-0.7056227371081337
1001
ACAD_VIEW_EDGE_ID
1071
   -88067
1071
       -1
1071
        1
1071
        0
  0
SPLINE
  5
AFA
330
1F
100
AcDbEntity
  8
Visible
100
AcDbSpline
 70
     0
 71
     3
 72
    14
 73
    10
 74
     0
 42
0.000000001
 43
0.0000000001
 40
0.0
 40
0.0
 40
0.0
 40
0.0
 40
0.0241470756742647
 40
0.0241470756742647
 40
0.0458979919086643
 40
0.0458979919086643
 40
0.0712691547221046
 40
0.0712691547221046
 40
0.0790147049759689
 40
0.0790147049759689
 40
0.0790147049759689
 40
0.0790147049759689
 10
92.18497197836365
 20
90.54148077838119
 30
0.0000000114896343
 10
92.18497197836365
 20
90.59347280852975
 30
-0.0614451633231956
 10
92.17046318610249
 20
90.64534035979269
 30
-0.1240830735464288
 10
92.1315429876626
 20
90.72012926514915
 30
-0.2517497864381721
 10
92.10921514708887
 20
90.7462729556294
 30
-0.3170169842183984
 10
92.06811307730765
 20
90.78554741411185
 30
-0.4634418850736555
 10
92.05002177371312
 20
90.79713294046561
 30
-0.5461068641248527
 10
92.03246953061865
 20
90.80738434700041
 30
-0.6546083312300253
 10
92.02875049793473
 20
90.8094141888935
 30
-0.6800863387122328
 10
92.02537468716718
 20
90.81117238244706
 30
-0.705622737108128
1001
ACAD_VIEW_EDGE_ID
1071
   -88068
1071
       -1
1071
        1
1071
        0
  0
SPLINE
  5
AFB
330
1F
100
AcDbEntity
  8
Visible
100
AcDbSpline
 70
     0
 71
     3
 72
    14
 73
    10
 74
     0
 42
0.000000001
 43
0.0000000001
 40
0.0
 40
0.0
 40
0.0
 40
0.0
 40
0.0241470756742648
 40
0.0241470756742648
 40
0.0458979919086638
 40
0.0458979919086638
 40
0.0712691547221202
 40
0.0712691547221202
 40
0.0790147049759685
 40
0.0790147049759685
 40
0.0790147049759685
 40
0.0790147049759685
 10
92.18497197836365
 20
88.23238986928961
 30
0.0000000114896398
 10
92.18497197836365
 20
88.28438189943998
 30
-0.0614451633231905
 10
92.17046318610249
 20
88.33624945070122
 30
-0.1240830735464231
 10
92.1315429876626
 20
88.41103835605769
 30
-0.2517497864381649
 10
92.10921514708887
 20
88.43718204653791
 30
-0.317016984218395
 10
92.06811307730765
 20
88.47645650502029
 30
-0.4634418850736992
 10
92.05002177371312
 20
88.48804203137413
 30
-0.5461068641249546
 10
92.03246953061865
 20
88.49829343790892
 30
-0.6546083312301284
 10
92.02875049793473
 20
88.50032327980191
 30
-0.6800863387122798
 10
92.02537468716718
 20
88.5020814733555
 30
-0.7056227371081225
1001
ACAD_VIEW_EDGE_ID
1071
   -88069
1071
       -1
1071
        1
1071
        0
  0
SPLINE
  5
AFC
330
1F
100
AcDbEntity
  8
Visible
100
AcDbSpline
 70
     0
 71
     3
 72
    14
 73
    10
 74
     0
 42
0.000000001
 43
0.0000000001
 40
0.0
 40
0.0
 40
0.0
 40
0.0
 40
0.0241470756742637
 40
0.0241470756742637
 40
0.0458979919086796
 40
0.0458979919086796
 40
0.0712691547221204
 40
0.0712691547221204
 40
0.0790147049759523
 40
0.0790147049759523
 40
0.0790147049759523
 40
0.0790147049759523
 10
92.18497197836365
 20
76.68693532383568
 30
0.0000000114896673
 10
92.18497197836365
 20
76.7389273539841
 30
-0.0614451633231601
 10
92.17046318610249
 20
76.79079490524711
 30
-0.1240830735463998
 10
92.1315429876626
 20
76.86558381060362
 30
-0.2517497864381831
 10
92.10921514708887
 20
76.89172750108379
 30
-0.3170169842184722
 10
92.06811307730765
 20
76.9310019595662
 30
-0.4634418850737875
 10
92.05002177371312
 20
76.9425874859201
 30
-0.546106864124978
 10
92.03246953061865
 20
76.95283889245482
 30
-0.6546083312300477
 10
92.02875049793473
 20
76.95486873434791
 30
-0.6800863387121458
 10
92.02537468716718
 20
76.95662692790145
 30
-0.7056227371079343
1001
ACAD_VIEW_EDGE_ID
1071
   -88074
1071
       -1
1071
        1
1071
        0
  0
SPLINE
  5
AFD
330
1F
100
AcDbEntity
  8
Visible
100
AcDbSpline
 70
     0
 71
     3
 72
    14
 73
    10
 74
     0
 42
0.000000001
 43
0.0000000001
 40
0.0
 40
0.0
 40
0.0
 40
0.0
 40
0.0241470756742684
 40
0.0241470756742684
 40
0.0458979919086158
 40
0.0458979919086158
 40
0.071269154722058
 40
0.071269154722058
 40
0.0790147049759554
 40
0.0790147049759554
 40
0.0790147049759554
 40
0.0790147049759554
 10
92.18497197836365
 20
74.37784441474403
 30
0.0000000114895134
 10
92.18497197836365
 20
74.42983644489451
 30
-0.0614451633233259
 10
92.17046318610249
 20
74.48170399615563
 30
-0.124083073546535
 10
92.1315429876626
 20
74.55649290151213
 30
-0.2517497864381526
 10
92.10921514708887
 20
74.58263659199414
 30
-0.3170169842182097
 10
92.06811307730765
 20
74.62191105047465
 30
-0.463441885073289
 10
92.05002177371312
 20
74.63349657682861
 30
-0.5461068641244885
 10
92.03246953061865
 20
74.64374798336334
 30
-0.6546083312297713
 10
92.02875049793473
 20
74.64577782525643
 30
-0.6800863387120845
 10
92.02537468716718
 20
74.64753601881179
 30
-0.7056227371080892
1001
ACAD_VIEW_EDGE_ID
1071
   -88075
1071
       -1
1071
        1
1071
        0
  0
SPLINE
  5
AFE
330
1F
100
AcDbEntity
  8
Visible
100
AcDbSpline
 70
     0
 71
     3
 72
    12
 73
     8
 74
     0
 42
0.000000001
 43
0.0000000001
 40
0.0
 40
0.0
 40
0.0
 40
0.0
 40
0.0371087259167676
 40
0.0371087259167676
 40
0.0573870732854274
 40
0.0573870732854274
 40
0.0789750651505956
 40
0.0789750651505956
 40
0.0789750651505956
 40
0.0789750651505956
 10
137.1895692695611
 20
94.27480874608344
 30
0.705622760087397
 10
137.173395849673
 20
94.26638528737695
 30
0.5832785523919031
 10
137.1475998938163
 20
94.25287043611506
 30
0.4604476973629418
 10
137.0953405861924
 20
94.19751823652157
 30
0.284956796387359
 10
137.0747137295489
 20
94.17025037620199
 30
0.2253780546394609
 10
137.0413760517418
 20
94.09810350538945
 30
0.1106659073996319
 10
137.0299719783647
 20
94.05159910691621
 30
0.0549332858913442
 10
137.0299719783647
 20
94.0051171420175
 30
0.0000000114896353
1001
ACAD_VIEW_EDGE_ID
1071
   -88078
1071
       -1
1071
        1
1071
        0
  0
SPLINE
  5
AFF
330
1F
100
AcDbEntity
  8
Visible
100
AcDbSpline
 70
     0
 71
     3
 72
    12
 73
     8
 74
     0
 42
0.000000001
 43
0.0000000001
 40
0.0
 40
0.0
 40
0.0
 40
0.0
 40
0.0371087259167676
 40
0.0371087259167676
 40
0.0573870732854275
 40
0.0573870732854275
 40
0.0789750651505955
 40
0.0789750651505955
 40
0.0789750651505955
 40
0.0789750651505955
 10
137.1895692695611
 20
91.96571783699196
 30
0.7056227600873914
 10
137.173395849673
 20
91.95729437828713
 30
0.5832785523918976
 10
137.1475998938163
 20
91.94377952702351
 30
0.4604476973629361
 10
137.0953405861924
 20
91.88842732743003
 30
0.2849567963873532
 10
137.0747137295489
 20
91.86115946711041
 30
0.2253780546394557
 10
137.0413760517418
 20
91.78901259629968
 30
0.1106659073996274
 10
137.0299719783647
 20
91.7425081978266
 30
0.0549332858913381
 10
137.0299719783647
 20
91.696026232926
 30
0.0000000114896298
1001
ACAD_VIEW_EDGE_ID
1071
   -88079
1071
       -1
1071
        1
1071
        0
  0
SPLINE
  5
B00
330
1F
100
AcDbEntity
  8
Visible
100
AcDbSpline
 70
     0
 71
     3
 72
    12
 73
     8
 74
     0
 42
0.000000001
 43
0.0000000001
 40
0.0
 40
0.0
 40
0.0
 40
0.0
 40
0.0371087259167678
 40
0.0371087259167678
 40
0.0573870732854274
 40
0.0573870732854274
 40
0.0789750651505953
 40
0.0789750651505953
 40
0.0789750651505953
 40
0.0789750651505953
 10
137.1895692695611
 20
89.65662692790223
 30
0.7056227600873859
 10
137.173395849673
 20
89.64820346919564
 30
0.5832785523918918
 10
137.1475998938163
 20
89.63468861793201
 30
0.4604476973629309
 10
137.0953405861924
 20
89.57933641834031
 30
0.2849567963873487
 10
137.0747137295489
 20
89.55206855802069
 30
0.2253780546394489
 10
137.0413760517418
 20
89.47992168720819
 30
0.1106659073996219
 10
137.0299719783647
 20
89.43341728873503
 30
0.0549332858913326
 10
137.0299719783647
 20
89.38693532383453
 30
0.0000000114896243
1001
ACAD_VIEW_EDGE_ID
1071
   -88080
1071
       -1
1071
        1
1071
        0
  0
SPLINE
  5
B01
330
1F
100
AcDbEntity
  8
Visible
100
AcDbSpline
 70
     0
 71
     3
 72
    12
 73
     8
 74
     0
 42
0.000000001
 43
0.0000000001
 40
0.0
 40
0.0
 40
0.0
 40
0.0
 40
0.0371087259167678
 40
0.0371087259167678
 40
0.0573870732854277
 40
0.0573870732854277
 40
0.0789750651505953
 40
0.0789750651505953
 40
0.0789750651505953
 40
0.0789750651505953
 10
137.1895692695611
 20
87.34753601881065
 30
0.7056227600873805
 10
137.173395849673
 20
87.33911256010399
 30
0.5832785523918861
 10
137.1475998938163
 20
87.32559770884231
 30
0.460447697362925
 10
137.0953405861924
 20
87.27024550924879
 30
0.2849567963873425
 10
137.0747137295489
 20
87.24297764892922
 30
0.2253780546394442
 10
137.0413760517418
 20
87.17083077811841
 30
0.1106659073996177
 10
137.0299719783647
 20
87.12432637964345
 30
0.0549332858913262
 10
137.0299719783647
 20
87.07784441474471
 30
0.0000000114896188
1001
ACAD_VIEW_EDGE_ID
1071
   -88081
1071
       -1
1071
        1
1071
        0
  0
SPLINE
  5
B02
330
1F
100
AcDbEntity
  8
Visible
100
AcDbSpline
 70
     0
 71
     3
 72
    12
 73
     8
 74
     0
 42
0.000000001
 43
0.0000000001
 40
0.0
 40
0.0
 40
0.0
 40
0.0
 40
0.0371087259167825
 40
0.0371087259167825
 40
0.0573870732854576
 40
0.0573870732854576
 40
0.0789750651506124
 40
0.0789750651506124
 40
0.0789750651506124
 40
0.0789750651506124
 10
137.1895692695611
 20
78.11117238244813
 30
0.7056227600875191
 10
137.173395849673
 20
78.10274892374152
 30
0.5832785523919754
 10
137.1475998938163
 20
78.08923407247802
 30
0.4604476973629488
 10
137.0953405861924
 20
78.03388187288445
 30
0.2849567963872737
 10
137.0747137295489
 20
78.00661401256494
 30
0.2253780546393006
 10
137.0413760517418
 20
77.93446714175414
 30
0.110665907399475
 10
137.0299719783647
 20
77.88796274328101
 30
0.0549332858912718
 10
137.0299719783647
 20
77.84148077838044
 30
0.0000000114895968
1001
ACAD_VIEW_EDGE_ID
1071
   -88085
1071
       -1
1071
        1
1071
        0
  0
SPLINE
  5
B03
330
1F
100
AcDbEntity
  8
Visible
100
AcDbSpline
 70
     0
 71
     3
 72
    12
 73
     8
 74
     0
 42
0.000000001
 43
0.0000000001
 40
0.0
 40
0.0
 40
0.0
 40
0.0
 40
0.0371087259167518
 40
0.0371087259167518
 40
0.0573870732854229
 40
0.0573870732854229
 40
0.0789750651505827
 40
0.0789750651505827
 40
0.0789750651505827
 40
0.0789750651505827
 10
137.1895692695611
 20
75.80208147335659
 30
0.705622760087353
 10
137.173395849673
 20
75.79365801465005
 30
0.5832785523919114
 10
137.1475998938163
 20
75.7801431633882
 30
0.4604476973630132
 10
137.0953405861924
 20
75.72479096379485
 30
0.284956796387438
 10
137.0747137295489
 20
75.69752310347509
 30
0.2253780546394492
 10
137.0413760517418
 20
75.62537623266265
 30
0.11066590739961
 10
137.0299719783647
 20
75.57887183418947
 30
0.0549332858914384
 10
137.0299719783647
 20
75.53238986928895
 30
0.0000000114897506
1001
ACAD_VIEW_EDGE_ID
1071
   -88086
1071
       -1
1071
        1
1071
        0
  0
SPLINE
  5
B04
330
1F
100
AcDbEntity
  8
Visible
100
AcDbSpline
 70
     0
 71
     3
 72
    12
 73
     8
 74
     0
 42
0.000000001
 43
0.0000000001
 40
0.0
 40
0.0
 40
0.0
 40
0.0
 40
0.0371087259167825
 40
0.0371087259167825
 40
0.057387073285458
 40
0.057387073285458
 40
0.0789750651506125
 40
0.0789750651506125
 40
0.0789750651506125
 40
0.0789750651506125
 10
137.1895692695611
 20
73.49299056426511
 30
0.7056227600875078
 10
137.173395849673
 20
73.48456710556026
 30
0.5832785523919643
 10
137.1475998938163
 20
73.47105225429672
 30
0.4604476973629373
 10
137.0953405861924
 20
73.41570005470321
 30
0.2849567963872619
 10
137.0747137295489
 20
73.38843219438363
 30
0.2253780546392901
 10
137.0413760517418
 20
73.31628532357294
 30
0.1106659073994653
 10
137.0299719783647
 20
73.26978092509794
 30
0.05493328589126
 10
137.0299719783647
 20
73.22329896019917
 30
0.0000000114895858
1001
ACAD_VIEW_EDGE_ID
1071
   -88087
1071
       -1
1071
        1
1071
        0
  0
LINE
  5
B05
330
1F
100
AcDbEntity
  8
Visible
100
AcDbLine
 10
92.02537518516177
 20
93.12026316098636
 30
-0.7056229885103295
 11
90.97712418516179
 21
93.66620216098629
 31
-0.7056529885103294
  0
LINE
  5
B06
330
1F
100
AcDbEntity
  8
Visible
100
AcDbLine
 10
92.02537518516177
 20
90.81117216098631
 30
-0.7056229885103295
 11
90.97712418516179
 21
91.35711116098631
 31
-0.7056529885103294
  0
LINE
  5
B07
330
1F
100
AcDbEntity
  8
Visible
100
AcDbLine
 10
92.02537518516177
 20
88.50208116098631
 30
-0.7056229885103295
 11
90.97712418516179
 21
89.04802016098633
 31
-0.7056529885103294
  0
LINE
  5
B08
330
1F
100
AcDbEntity
  8
Visible
100
AcDbLine
 10
91.13185918516178
 20
86.65834216098636
 30
-0.7056479885103295
 11
90.97712418516179
 21
86.73892916098637
 31
-0.7056529885103294
  0
LINE
  5
B09
330
1F
100
AcDbEntity
  8
Visible
100
AcDbLine
 10
92.02537518516177
 20
76.9566271609863
 30
-0.7056229885103295
 11
90.97712418516179
 21
77.50256616098633
 31
-0.7056529885103294
  0
LINE
  5
B0A
330
1F
100
AcDbEntity
  8
Visible
100
AcDbLine
 10
92.02537518516177
 20
74.64753616098628
 30
-0.7056229885103295
 11
90.97712418516179
 21
75.19347516098638
 31
-0.7056529885103294
  0
LINE
  5
B0B
330
1F
100
AcDbEntity
  8
Visible
100
AcDbLine
 10
137.9259871851618
 20
94.65834216098631
 30
0.7056440114896705
 11
137.1895691851618
 21
94.27480916098636
 31
0.7056230114896706
  0
LINE
  5
B0C
330
1F
100
AcDbEntity
  8
Visible
100
AcDbLine
 10
138.2378191851618
 20
92.51165716098629
 30
0.7056530114896705
 11
137.1895691851618
 21
91.96571816098629
 31
0.7056230114896706
  0
LINE
  5
B0D
330
1F
100
AcDbEntity
  8
Visible
100
AcDbLine
 10
138.2378191851618
 20
90.20256616098636
 30
0.7056530114896705
 11
137.1895691851618
 21
89.65662716098629
 31
0.7056230114896706
  0
LINE
  5
B0E
330
1F
100
AcDbEntity
  8
Visible
100
AcDbLine
 10
138.2378191851618
 20
87.89347516098635
 30
0.7056530114896705
 11
137.1895691851618
 21
87.34753616098627
 31
0.7056230114896706
  0
LINE
  5
B0F
330
1F
100
AcDbEntity
  8
Visible
100
AcDbLine
 10
138.2378191851618
 20
78.65711116098626
 30
0.7056530114896705
 11
137.1895691851618
 21
78.11117216098634
 31
0.7056230114896706
  0
LINE
  5
B10
330
1F
100
AcDbEntity
  8
Visible
100
AcDbLine
 10
138.2378191851618
 20
76.34802016098635
 30
0.7056530114896705
 11
137.1895691851618
 21
75.8020811609863
 31
0.7056230114896706
  0
LINE
  5
B11
330
1F
100
AcDbEntity
  8
Visible
100
AcDbLine
 10
138.2378191851618
 20
74.03892916098633
 30
0.7056530114896705
 11
137.1895691851618
 21
73.4929901609863
 31
0.7056230114896706
  0
SPLINE
  5
B12
330
1F
100
AcDbEntity
  8
Visible
100
AcDbSpline
 70
     0
 71
     3
 72
     8
 73
     4
 74
     0
 42
0.000000001
 43
0.0000000001
 40
0.0
 40
0.0
 40
0.0
 40
0.0
 40
0.0168066285125567
 40
0.0168066285125567
 40
0.0168066285125567
 40
0.0168066285125567
 10
90.81410803447715
 20
73.0698451741803
 30
-0.1285941599547029
 10
90.80268418378318
 20
73.10249285958466
 30
-0.0845249030297228
 10
90.79597197836438
 20
73.13956473244004
 30
-0.0420987431095215
 10
90.79597197836438
 20
73.17652646933241
 30
0.0000000114897332
1001
ACAD_VIEW_EDGE_ID
1071
   -92161
1071
       -1
1071
        1
1071
        0
  0
SPLINE
  5
B13
330
1F
100
AcDbEntity
  8
Visible
100
AcDbSpline
 70
     0
 71
     3
 72
    12
 73
     8
 74
     0
 42
0.000000001
 43
0.0000000001
 40
0.0
 40
0.0
 40
0.0
 40
0.0
 40
0.037830785729736
 40
0.037830785729736
 40
0.0583688813475378
 40
0.0583688813475378
 40
0.0802286663706144
 40
0.0802286663706144
 40
0.0802286663706144
 40
0.0802286663706144
 10
90.97712467402514
 20
93.6662022394133
 30
-0.7056525675554636
 10
90.95331057550486
 20
93.67860460063015
 30
-0.5824416074442529
 10
90.92187514168967
 20
93.69614191551162
 30
-0.4592376828325439
 10
90.8642749139031
 20
93.75740666974648
 30
-0.283785180933215
 10
90.84249075709477
 20
93.78653252827765
 30
-0.2245309305815608
 10
90.80768000104171
 20
93.86213982346024
 30
-0.1103168227325725
 10
90.79597197836438
 20
93.9102698322215
 30
-0.0547563439919824
 10
90.79597197836438
 20
93.95834465114894
 30
0.0000000114895115
1001
ACAD_VIEW_EDGE_ID
1071
   -92164
1071
       -1
1071
        1
1071
        0
  0
SPLINE
  5
B14
330
1F
100
AcDbEntity
  8
Visible
100
AcDbSpline
 70
     0
 71
     3
 72
    12
 73
     8
 74
     0
 42
0.000000001
 43
0.0000000001
 40
0.0
 40
0.0
 40
0.0
 40
0.0
 40
0.0378307857297533
 40
0.0378307857297533
 40
0.0583688813475582
 40
0.0583688813475582
 40
0.0802286663706289
 40
0.0802286663706289
 40
0.0802286663706289
 40
0.0802286663706289
 10
90.97712467402514
 20
91.3571113303235
 30
-0.7056525675554579
 10
90.95331057550486
 20
91.3695136915406
 30
-0.5824416074441911
 10
90.92187514168967
 20
91.38705100642011
 30
-0.4592376828324152
 10
90.8642749139031
 20
91.44831576065501
 30
-0.2837851809330352
 10
90.84249075709477
 20
91.4774416191862
 30
-0.2245309305813888
 10
90.80768000104171
 20
91.55304891436864
 30
-0.1103168227324205
 10
90.79597197836438
 20
91.60117892313005
 30
-0.0547563439917923
 10
90.79597197836438
 20
91.64925374205928
 30
0.0000000114896866
1001
ACAD_VIEW_EDGE_ID
1071
   -92165
1071
       -1
1071
        1
1071
        0
  0
SPLINE
  5
B15
330
1F
100
AcDbEntity
  8
Visible
100
AcDbSpline
 70
     0
 71
     3
 72
    12
 73
     8
 74
     0
 42
0.000000001
 43
0.0000000001
 40
0.0
 40
0.0
 40
0.0
 40
0.0
 40
0.0378307857297533
 40
0.0378307857297533
 40
0.0583688813475584
 40
0.0583688813475584
 40
0.0802286663706287
 40
0.0802286663706287
 40
0.0802286663706287
 40
0.0802286663706287
 10
90.97712467402514
 20
89.04802042123199
 30
-0.7056525675554523
 10
90.95331057550486
 20
89.06042278244909
 30
-0.5824416074441851
 10
90.92187514168967
 20
89.07796009732866
 30
-0.459237682832409
 10
90.8642749139031
 20
89.13922485156339
 30
-0.2837851809330292
 10
90.84249075709477
 20
89.16835071009458
 30
-0.224530930581383
 10
90.80768000104171
 20
89.24395800527898
 30
-0.1103168227324156
 10
90.79597197836438
 20
89.29208801404021
 30
-0.0547563439917859
 10
90.79597197836438
 20
89.34016283296783
 30
0.0000000114896924
1001
ACAD_VIEW_EDGE_ID
1071
   -92166
1071
       -1
1071
        1
1071
        0
  0
SPLINE
  5
B16
330
1F
100
AcDbEntity
  8
Visible
100
AcDbSpline
 70
     0
 71
     3
 72
    12
 73
     8
 74
     0
 42
0.000000001
 43
0.0000000001
 40
0.0
 40
0.0
 40
0.0
 40
0.0
 40
0.0378307857297532
 40
0.0378307857297532
 40
0.0583688813475438
 40
0.0583688813475438
 40
0.0802286663706273
 40
0.0802286663706273
 40
0.0802286663706273
 40
0.0802286663706273
 10
90.97712467402514
 20
86.73892951214051
 30
-0.7056525675554465
 10
90.95331057550486
 20
86.75133187335754
 30
-0.5824416074441797
 10
90.92187514168967
 20
86.7688691882388
 30
-0.4592376828324026
 10
90.8642749139031
 20
86.83013394247367
 30
-0.283785180933067
 10
90.84249075709477
 20
86.85925980100481
 30
-0.2245309305815102
 10
90.80768000104171
 20
86.93486709618744
 30
-0.1103168227325403
 10
90.79597197836438
 20
86.98299710494874
 30
-0.0547563439918128
 10
90.79597197836438
 20
87.03107192387632
 30
0.0000000114896982
1001
ACAD_VIEW_EDGE_ID
1071
   -92167
1071
       -1
1071
        1
1071
        0
  0
SPLINE
  5
B17
330
1F
100
AcDbEntity
  8
Visible
100
AcDbSpline
 70
     0
 71
     3
 72
    12
 73
     8
 74
     0
 42
0.000000001
 43
0.0000000001
 40
0.0
 40
0.0
 40
0.0
 40
0.0
 40
0.0378307857297535
 40
0.0378307857297535
 40
0.0583688813475437
 40
0.0583688813475437
 40
0.0802286663706266
 40
0.0802286663706266
 40
0.0802286663706266
 40
0.0802286663706266
 10
90.97712467402514
 20
77.50256587577794
 30
-0.7056525675554234
 10
90.95331057550486
 20
77.51496823699497
 30
-0.5824416074441558
 10
90.92187514168967
 20
77.53250555187453
 30
-0.4592376828323791
 10
90.8642749139031
 20
77.59377030610929
 30
-0.2837851809330458
 10
90.84249075709477
 20
77.62289616464048
 30
-0.2245309305814852
 10
90.80768000104171
 20
77.69850345982312
 30
-0.1103168227325195
 10
90.79597197836438
 20
77.7466334685844
 30
-0.0547563439917879
 10
90.79597197836438
 20
77.7947082875137
 30
0.0000000114897216
1001
ACAD_VIEW_EDGE_ID
1071
   -92171
1071
       -1
1071
        1
1071
        0
  0
SPLINE
  5
B18
330
1F
100
AcDbEntity
  8
Visible
100
AcDbSpline
 70
     0
 71
     3
 72
    12
 73
     8
 74
     0
 42
0.000000001
 43
0.0000000001
 40
0.0
 40
0.0
 40
0.0
 40
0.0
 40
0.0378307857297514
 40
0.0378307857297514
 40
0.0583688813475408
 40
0.0583688813475408
 40
0.0802286663706292
 40
0.0802286663706292
 40
0.0802286663706292
 40
0.0802286663706292
 10
90.97712467402514
 20
75.19347496668647
 30
-0.7056525675555854
 10
90.95331057550486
 20
75.20587732790343
 30
-0.582441607444324
 10
90.92187514168967
 20
75.22341464278295
 30
-0.4592376828325432
 10
90.8642749139031
 20
75.28467939701764
 30
-0.2837851809332057
 10
90.84249075709477
 20
75.313805255549
 30
-0.2245309305816517
 10
90.80768000104171
 20
75.38941255073345
 30
-0.1103168227326617
 10
90.79597197836438
 20
75.43754255949469
 30
-0.054756343991965
 10
90.79597197836438
 20
75.48561737842224
 30
0.0000000114895582
1001
ACAD_VIEW_EDGE_ID
1071
   -92172
1071
       -1
1071
        1
1071
        0
  0
SPLINE
  5
B19
330
1F
100
AcDbEntity
  8
Visible
100
AcDbSpline
 70
     0
 71
     3
 72
    14
 73
    10
 74
     0
 42
0.000000001
 43
0.0000000001
 40
0.0
 40
0.0
 40
0.0
 40
0.0
 40
0.024016419768281
 40
0.024016419768281
 40
0.0460445196163215
 40
0.0460445196163215
 40
0.0723646935421204
 40
0.0723646935421204
 40
0.0802608678944847
 40
0.0802608678944847
 40
0.0802608678944847
 40
0.0802608678944847
 10
138.418971978364
 20
92.80379919660422
 30
0.0000000114895728
 10
138.418971978364
 20
92.75098142962034
 30
0.0601584996373984
 10
138.4046507821581
 20
92.69821214578522
 30
0.121437357460632
 10
138.3646434435682
 20
92.61956147415121
 30
0.2470165228702337
 10
138.3408722191902
 20
92.59096552727108
 30
0.3117516964268812
 10
138.2942346701616
 20
92.54573652359548
 30
0.4592376821696459
 10
138.2719567525378
 20
92.531099277959
 30
0.543658683015229
 10
138.2480162785955
 20
92.517106337976
 30
0.6542908618741281
 10
138.2427898449146
 20
92.5142454492227
 30
0.6799355665716325
 10
138.2378192827031
 20
92.51165678486843
 30
0.7056525905348857
1001
ACAD_VIEW_EDGE_ID
1071
   -92175
1071
       -1
1071
        1
1071
        0
  0
SPLINE
  5
B1A
330
1F
100
AcDbEntity
  8
Visible
100
AcDbSpline
 70
     0
 71
     3
 72
    14
 73
    10
 74
     0
 42
0.000000001
 43
0.0000000001
 40
0.0
 40
0.0
 40
0.0
 40
0.0
 40
0.024016419768281
 40
0.024016419768281
 40
0.0460445196163217
 40
0.0460445196163217
 40
0.0723646935421205
 40
0.0723646935421205
 40
0.0802608678944849
 40
0.0802608678944849
 40
0.0802608678944849
 40
0.0802608678944849
 10
138.418971978364
 20
90.49470828751267
 30
0.0000000114895669
 10
138.418971978364
 20
90.44189052052862
 30
0.0601584996373926
 10
138.4046507821581
 20
90.38912123669376
 30
0.1214373574606264
 10
138.3646434435682
 20
90.31047056505972
 30
0.2470165228702283
 10
138.3408722191902
 20
90.28187461818131
 30
0.3117516964268752
 10
138.2942346701616
 20
90.236645614504
 30
0.4592376821696397
 10
138.2719567525378
 20
90.22200836886915
 30
0.5436586830152234
 10
138.2480162785955
 20
90.20801542888634
 30
0.6542908618741225
 10
138.2427898449146
 20
90.20515454013297
 30
0.6799355665716265
 10
138.2378192827031
 20
90.20256587577682
 30
0.7056525905348801
1001
ACAD_VIEW_EDGE_ID
1071
   -92176
1071
       -1
1071
        1
1071
        0
  0
SPLINE
  5
B1B
330
1F
100
AcDbEntity
  8
Visible
100
AcDbSpline
 70
     0
 71
     3
 72
    14
 73
    10
 74
     0
 42
0.000000001
 43
0.0000000001
 40
0.0
 40
0.0
 40
0.0
 40
0.0
 40
0.0240164197682852
 40
0.0240164197682852
 40
0.0460445196162704
 40
0.0460445196162704
 40
0.0723646935420547
 40
0.0723646935420547
 40
0.0802608678944708
 40
0.0802608678944708
 40
0.0802608678944708
 40
0.0802608678944708
 10
138.418971978364
 20
88.18561737842291
 30
0.0000000114897303
 10
138.418971978364
 20
88.13279961143896
 30
0.0601584996375665
 10
138.4046507821581
 20
88.0800303276022
 30
0.1214373574607715
 10
138.3646434435682
 20
88.00137965596993
 30
0.2470165228702453
 10
138.3408722191902
 20
87.97278370908978
 30
0.3117516964267132
 10
138.2942346701616
 20
87.92755470541244
 30
0.4592376821692427
 10
138.2719567525378
 20
87.91291745977767
 30
0.543658683014768
 10
138.2480162785955
 20
87.89892451979469
 30
0.654290861873781
 10
138.2427898449146
 20
87.89606363104146
 30
0.6799355665714525
 10
138.2378192827031
 20
87.89347496668723
 30
0.7056525905348743
1001
ACAD_VIEW_EDGE_ID
1071
   -92177
1071
       -1
1071
        1
1071
        0
  0
SPLINE
  5
B1C
330
1F
100
AcDbEntity
  8
Visible
100
AcDbSpline
 70
     0
 71
     3
 72
     8
 73
     4
 74
     0
 42
0.000000001
 43
0.0000000001
 40
0.0790279144751999
 40
0.0790279144751999
 40
0.0790279144751999
 40
0.0790279144751999
 40
0.0802608678945017
 40
0.0802608678945017
 40
0.0802608678945017
 40
0.0802608678945017
 10
138.2401665552857
 20
78.65834423391729
 30
0.6936112329166759
 10
138.2393777847386
 20
78.65792638500472
 30
0.6976231500109196
 10
138.2385954144588
 20
78.65751553904854
 30
0.7016369886479779
 10
138.2378192827031
 20
78.65711133032281
 30
0.705652590535019
1001
ACAD_VIEW_EDGE_ID
1071
   -92181
1071
       -1
1071
        1
1071
        0
  0
SPLINE
  5
B1D
330
1F
100
AcDbEntity
  8
Visible
100
AcDbSpline
 70
     0
 71
     3
 72
    14
 73
    10
 74
     0
 42
0.000000001
 43
0.0000000001
 40
0.0
 40
0.0
 40
0.0
 40
0.0
 40
0.0240164197682678
 40
0.0240164197682678
 40
0.0460445196162189
 40
0.0460445196162189
 40
0.0723646935420044
 40
0.0723646935420044
 40
0.0802608678944725
 40
0.0802608678944725
 40
0.0802608678944725
 40
0.0802608678944725
 10
138.418971978364
 20
76.64016283296698
 30
0.0000000114897011
 10
138.418971978364
 20
76.5873450659831
 30
0.0601584996374938
 10
138.4046507821581
 20
76.53457578214809
 30
0.121437357460628
 10
138.3646434435682
 20
76.45592511051396
 30
0.247016522869948
 10
138.3408722191902
 20
76.42732916363567
 30
0.3117516964262976
 10
138.2942346701616
 20
76.38210015995841
 30
0.459237682168699
 10
138.2719567525378
 20
76.36746291432363
 30
0.5436586830142387
 10
138.2480162785955
 20
76.35346997434064
 30
0.6542908618734175
 10
138.2427898449146
 20
76.35060908558748
 30
0.679935566571254
 10
138.2378192827031
 20
76.34802042123119
 30
0.7056525905348453
1001
ACAD_VIEW_EDGE_ID
1071
   -92182
1071
       -1
1071
        1
1071
        0
  0
SPLINE
  5
B1E
330
1F
100
AcDbEntity
  8
Visible
100
AcDbSpline
 70
     0
 71
     3
 72
    14
 73
    10
 74
     0
 42
0.000000001
 43
0.0000000001
 40
0.0
 40
0.0
 40
0.0
 40
0.0
 40
0.024016419768263
 40
0.024016419768263
 40
0.0460445196162851
 40
0.0460445196162851
 40
0.0723646935421036
 40
0.0723646935421036
 40
0.0802608678945017
 40
0.0802608678945017
 40
0.0802608678945017
 40
0.0802608678945017
 10
138.418971978364
 20
74.33107192387748
 30
0.0000000114895261
 10
138.418971978364
 20
74.27825415689344
 30
0.0601584996373067
 10
138.4046507821581
 20
74.22548487305661
 30
0.1214373574604731
 10
138.3646434435682
 20
74.14683420142447
 30
0.2470165228699614
 10
138.3408722191902
 20
74.11823825454419
 30
0.3117516964265659
 10
138.2942346701616
 20
74.07300925086858
 30
0.4592376821693119
 10
138.2719567525378
 20
74.05837200523214
 30
0.5436586830149535
 10
138.2480162785955
 20
74.04437906524916
 30
0.6542908618740232
 10
138.2427898449146
 20
74.04151817649593
 30
0.6799355665716439
 10
138.2378192827031
 20
74.03892951214166
 30
0.7056525905350074
1001
ACAD_VIEW_EDGE_ID
1071
   -92183
1071
       -1
1071
        1
1071
        0
  0
LINE
  5
B1F
330
1F
100
AcDbEntity
  8
Visible
100
AcDbLine
 10
92.20747218516184
 20
71.65834416098626
 30
0.0000000114896705
 11
90.79597218516182
 21
73.06984516098637
 31
0.0000000114896705
  0
LINE
  5
B20
330
1F
100
AcDbEntity
  8
Visible
100
AcDbLine
 10
137.0074711851617
 20
71.65834416098626
 30
0.0000000114896705
 11
138.4189721851618
 21
73.06984516098637
 31
0.0000000114896705
  0
ARC
  5
B21
330
1F
100
AcDbEntity
  8
Visible Narrow
100
AcDbCircle
 10
114.6074721851618
 20
0.0000000114896705
 30
-95.1394601609863
 40
24.49744275775191
210
0.0
220
-1.0
230
0.0
100
AcDbArc
 50
0.0
 51
180.0
  0
ARC
  5
B22
330
1F
100
AcDbEntity
  8
Visible
100
AcDbCircle
 10
-114.6074721851618
 20
0.0000000114896705
 30
94.65834416098628
 40
23.99779951588282
210
0.0
220
1.0
230
0.0
100
AcDbArc
 50
0.0
 51
180.0
  0
ARC
  5
B24
330
1F
100
AcDbEntity
  8
Visible Narrow
100
AcDbCircle
 10
-114.6074721851618
 20
0.0000000114896705
 30
104.3536741609863
 40
31.17358388172258
210
0.0
220
1.0
230
0.0
100
AcDbArc
 50
0.0
 51
180.0
  0
ARC
  5
B26
330
1F
100
AcDbEntity
  8
Visible
100
AcDbCircle
 10
-90.60967218516186
 20
95.15834416098629
 30
-0.0000000114896705
 40
0.5
210
0.0
220
0.0
230
-1.0
100
AcDbArc
 50
270.0
 51
357.8354609999993
  0
ARC
  5
B27
330
1F
100
AcDbEntity
  8
Visible
100
AcDbCircle
 10
-138.6052711851617
 20
95.15834416098629
 30
-0.0000000114896705
 40
0.5000000000000001
210
0.0
220
0.0
230
-1.0
100
AcDbArc
 50
182.1645390000006
 51
270.0
  0
ARC
  5
B28
330
1F
100
AcDbEntity
  8
Visible
100
AcDbCircle
 10
-83.60747218516186
 20
104.8225751609863
 30
-0.0000000114896705
 40
0.5
210
0.0
220
0.0
230
-1.0
100
AcDbArc
 50
290.3142660000014
 51
0.0
  0
ARC
  5
B29
330
1F
100
AcDbEntity
  8
Visible
100
AcDbCircle
 10
-145.6074711851618
 20
104.8225751609863
 30
-0.0000000114896705
 40
0.5
210
0.0
220
0.0
230
-1.0
100
AcDbArc
 50
180.0
 51
249.6857339999985
  0
LINE
  5
B2A
330
1F
100
AcDbEntity
  8
Visible
100
AcDbLine
 10
146.1074711851618
 20
106.1583451609864
 30
0.0000000114896705
 11
146.1074711851618
 21
104.8225751609863
 31
0.0000000114896705
  0
LINE
  5
B2B
330
1F
100
AcDbEntity
  8
Visible
100
AcDbLine
 10
83.10747218516182
 20
106.1583451609864
 30
0.0000000114896705
 11
83.10747218516182
 21
104.8225751609863
 31
0.0000000114896705
  0
ARC
  5
B2C
330
1F
100
AcDbEntity
  8
Visible
100
AcDbCircle
 10
-83.60747218516186
 20
106.1583451609864
 30
-0.0000000114896705
 40
0.5
210
0.0
220
0.0
230
-1.0
100
AcDbArc
 50
0.0
 51
90.0
  0
ARC
  5
B2D
330
1F
100
AcDbEntity
  8
Visible
100
AcDbCircle
 10
-145.6074711851618
 20
106.1583451609864
 30
-0.0000000114896705
 40
0.5
210
0.0
220
0.0
230
-1.0
100
AcDbArc
 50
90.0
 51
180.0
  0
ARC
  5
B2E
330
1F
100
AcDbEntity
  8
Visible
100
AcDbCircle
 10
-79.87969618516178
 20
94.75279116098631
 30
-0.0000000114896705
 40
10.23763822820604
210
0.0
220
0.0
230
-1.0
100
AcDbArc
 50
110.3142660000015
 51
177.8354609999994
  0
ARC
  5
B2F
330
1F
100
AcDbEntity
  8
Visible
100
AcDbCircle
 10
-149.3352481851618
 20
94.75279116098631
 30
-0.0000000114896705
 40
10.23763822820604
210
0.0
220
0.0
230
-1.0
100
AcDbArc
 50
2.164539000000623
 51
69.68573399999852
  0
ARC
  5
B31
330
1F
100
AcDbEntity
  8
Visible
100
AcDbCircle
 10
114.6074721851618
 20
0.0000000114896705
 30
-86.65834416098627
 40
31.00000000000001
210
0.0
220
-1.0
230
0.0
100
AcDbArc
 50
0.0
 51
180.0
  0
ARC
  5
B33
330
1F
100
AcDbEntity
  8
Visible
100
AcDbCircle
 10
-114.6074721851618
 20
0.0000000114896705
 30
84.65834416098628
 40
31.00000000000001
210
0.0
220
1.0
230
0.0
100
AcDbArc
 50
0.0
 51
180.0
  0
ARC
  5
B34
330
1F
100
AcDbEntity
  8
Visible
100
AcDbCircle
 10
-145.6074721851618
 20
86.15834416098627
 30
-0.0000000114896705
 40
0.5
210
0.0
220
0.0
230
-1.0
100
AcDbArc
 50
90.0
 51
180.0
  0
ARC
  5
B35
330
1F
100
AcDbEntity
  8
Visible
100
AcDbCircle
 10
-83.60747218516186
 20
86.15834416098627
 30
-0.0000000114896705
 40
0.5
210
0.0
220
0.0
230
-1.0
100
AcDbArc
 50
0.0
 51
90.0
  0
LINE
  5
B36
330
1F
100
AcDbEntity
  8
Visible
100
AcDbLine
 10
83.10747218516182
 20
85.15834416098625
 30
0.0000000114896705
 11
83.10747218516182
 21
86.15834416098627
 31
0.0000000114896705
  0
LINE
  5
B37
330
1F
100
AcDbEntity
  8
Visible
100
AcDbLine
 10
146.1074721851618
 20
85.15834416098625
 30
0.0000000114896705
 11
146.1074721851618
 21
86.15834416098627
 31
0.0000000114896705
  0
ARC
  5
B38
330
1F
100
AcDbEntity
  8
Visible
100
AcDbCircle
 10
-145.6074721851618
 20
85.15834416098625
 30
-0.0000000114896705
 40
0.5
210
0.0
220
0.0
230
-1.0
100
AcDbArc
 50
180.0
 51
270.0
  0
ARC
  5
B39
330
1F
100
AcDbEntity
  8
Visible
100
AcDbCircle
 10
-83.60747218516186
 20
85.15834416098625
 30
-0.0000000114896705
 40
0.5
210
0.0
220
0.0
230
-1.0
100
AcDbArc
 50
270.0
 51
0.0
  0
ARC
  5
B3A
330
1F
100
AcDbEntity
  8
Visible
100
AcDbCircle
 10
-114.6074721851618
 20
0.0000000114896705
 30
78.65834416098626
 40
26.0000000000001
210
0.0
220
1.0
230
0.0
100
AcDbArc
 50
135.9423660000017
 51
164.0576339999995
  0
LINE
  5
B3B
330
1F
100
AcDbEntity
  8
Visible
100
AcDbLine
 10
133.2921291851618
 20
78.65834416098626
 30
18.07992201148967
 11
120.9228151851618
 21
78.65834416098626
 31
25.22134901148967
  0
ARC
  5
B3C
330
1F
100
AcDbEntity
  8
Visible
100
AcDbCircle
 10
-114.6074721851618
 20
0.0000000114896705
 30
78.65834416098626
 40
26.00000000000001
210
0.0
220
1.0
230
0.0
100
AcDbArc
 50
75.94236599999934
 51
104.0576340000007
  0
LINE
  5
B3D
330
1F
100
AcDbEntity
  8
Visible
100
AcDbLine
 10
108.2921291851618
 20
78.65834416098626
 30
25.22134901148967
 11
95.92281418516185
 21
78.65834416098626
 31
18.07992201148967
  0
ARC
  5
B3E
330
1F
100
AcDbEntity
  8
Visible
100
AcDbCircle
 10
-114.6074721851618
 20
0.0000000114896705
 30
78.65834416098626
 40
26.00000000000007
210
0.0
220
1.0
230
0.0
100
AcDbArc
 50
15.94236600000047
 51
44.05763399999824
  0
ARC
  5
B3F
330
1F
100
AcDbEntity
  8
Visible
100
AcDbCircle
 10
-114.6074721851618
 20
0.0000000114896705
 30
82.65834416098625
 40
30.00000045448543
210
0.0
220
1.0
230
0.0
100
AcDbArc
 50
0.0
 51
180.0
  0
SPLINE
  5
B41
330
1F
100
AcDbEntity
  8
Visible
100
AcDbSpline
 70
     0
 71
     3
 72
    18
 73
    14
 74
     0
 42
0.000000001
 43
0.0000000001
 40
-0.2039984427075648
 40
-0.2039984427075648
 40
-0.2039984427075648
 40
-0.2039984427075648
 40
-0.1910463371473505
 40
-0.1910463371473505
 40
-0.1817330770845045
 40
-0.1817330770845045
 40
-0.174655133522452
 40
-0.174655133522452
 40
-0.1671130067991285
 40
-0.1671130067991285
 40
-0.1556207660325914
 40
-0.1556207660325914
 40
-0.1474916765616395
 40
-0.1474916765616395
 40
-0.1474916765616395
 40
-0.1474916765616395
 10
89.60747160583506
 20
79.72945636152819
 30
14.14508182171522
 10
89.60747160583506
 20
79.74692295505272
 30
14.18321519058985
 10
89.61182949640312
 20
79.76171500210083
 30
14.22235921899616
 10
89.62802507471089
 20
79.7803554528012
 30
14.28991032013738
 10
89.63733195709345
 20
79.78600212036444
 30
14.31787212404718
 10
89.65831795012631
 20
79.79159083456885
 30
14.36592963051142
 10
89.66878056107594
 20
79.79254741375851
 30
14.38604758498305
 10
89.69317075891328
 20
79.79147122561819
 30
14.42604234140695
 10
89.70712311023595
 20
79.78924548425069
 30
14.4455592359358
 10
89.74539178965413
 20
79.77970170189594
 30
14.49179697080976
 10
89.77090095243836
 20
79.77043041266305
 30
14.51644936793202
 10
89.81723592258413
 20
79.74998406724559
 30
14.55295495904078
 10
89.83712582498219
 20
79.74021721628857
 30
14.56634788155472
 10
89.85747160583512
 20
79.72945636152819
 30
14.57809452360747
1001
ACAD_VIEW_EDGE_ID
1071
       61
1071
       -1
1071
        4
1071
        0
  0
LINE
  5
B42
330
1F
100
AcDbEntity
  8
Visible Narrow
100
AcDbLine
 10
89.85747118516178
 20
79.7294561609863
 30
14.57809501148967
 11
89.85747118516178
 21
82.65834416098625
 31
14.57809501148967
  0
LINE
  5
B43
330
1F
100
AcDbEntity
  8
Visible
100
AcDbLine
 10
89.60747118516179
 20
82.65834416098625
 30
14.14508201148967
 11
89.60747118516179
 21
79.7294561609863
 31
14.14508201148967
  0
SPLINE
  5
B44
330
1F
100
AcDbEntity
  8
Visible
100
AcDbSpline
210
1.0
220
0.0
230
0.0
 70
     8
 71
     3
 72
    14
 73
    10
 74
     0
 42
0.000000001
 43
0.0000000001
 40
-1.340953249559416
 40
-1.340953249559416
 40
-1.340953249559416
 40
-1.340953249559416
 40
-1.330518091643122
 40
-1.330518091643122
 40
-1.208647759010831
 40
-1.208647759010831
 40
-0.9391569364577776
 40
-0.9391569364577776
 40
-0.6696661139047233
 40
-0.6696661139047233
 40
-0.6696661139047233
 40
-0.6696661139047233
 10
89.60747160583506
 20
79.72945636152819
 30
14.14508182171522
 10
89.60747160583506
 20
79.71365528985669
 30
14.11058464893347
 10
89.60747160583506
 20
79.69810538692152
 30
14.07593819077303
 10
89.60747160583506
 20
79.50417652771401
 30
13.6351363241112
 10
89.60747160583506
 20
79.3611941477732
 30
13.21213459015343
 10
89.60747160583506
 20
79.00860738958662
 30
11.95614898423935
 10
89.60747160583506
 20
78.85437944390222
 30
10.98593198965759
 10
89.60747160583506
 20
78.68074302022738
 30
9.027589293314447
 10
89.60747160583506
 20
78.65834423391729
 30
8.039729877763457
 10
89.60747160583506
 20
78.65834423391729
 30
7.141427135919948
1001
ACAD_VIEW_EDGE_ID
1071
       65
1071
       -1
1071
        4
1071
        0
  0
LINE
  5
B45
330
1F
100
AcDbEntity
  8
Visible
100
AcDbLine
 10
139.6074721851618
 20
79.7294561609863
 30
14.14508201148967
 11
139.6074721851618
 21
82.65834416098625
 31
14.14508201148967
  0
SPLINE
  5
B46
330
1F
100
AcDbEntity
  8
Visible
100
AcDbSpline
210
1.0
220
0.0
230
0.0
 70
     8
 71
     3
 72
    14
 73
    10
 74
     0
 42
0.000000001
 43
0.0000000001
 40
0.6696661139047226
 40
0.6696661139047226
 40
0.6696661139047226
 40
0.6696661139047226
 40
0.9391569364577767
 40
0.9391569364577767
 40
1.208647759010831
 40
1.208647759010831
 40
1.330518091643122
 40
1.330518091643122
 40
1.340953249559416
 40
1.340953249559416
 40
1.340953249559416
 40
1.340953249559416
 10
139.6074723508931
 20
78.65834423391729
 30
7.141427135919937
 10
139.6074723508931
 20
78.65834423391729
 30
8.039729877763452
 10
139.6074723508931
 20
78.68074302022738
 30
9.027589293314438
 10
139.6074723508931
 20
78.85437944390222
 30
10.98593198965758
 10
139.6074723508931
 20
79.00860738958662
 30
11.95614898423934
 10
139.6074723508931
 20
79.3611941477732
 30
13.21213459015343
 10
139.6074723508931
 20
79.50417652771401
 30
13.63513632411119
 10
139.6074723508931
 20
79.69810538692152
 30
14.07593819077302
 10
139.6074723508931
 20
79.71365528985669
 30
14.11058464893345
 10
139.6074723508931
 20
79.72945636152819
 30
14.14508182171521
1001
ACAD_VIEW_EDGE_ID
1071
       70
1071
       -1
1071
        4
1071
        0
  0
SPLINE
  5
B47
330
1F
100
AcDbEntity
  8
Visible
100
AcDbSpline
 70
     0
 71
     3
 72
    18
 73
    14
 74
     0
 42
0.000000001
 43
0.0000000001
 40
-0.2039984427089288
 40
-0.2039984427089288
 40
-0.2039984427089288
 40
-0.2039984427089288
 40
-0.1910463371486231
 40
-0.1910463371486231
 40
-0.1817330770856757
 40
-0.1817330770856757
 40
-0.174655133523539
 40
-0.174655133523539
 40
-0.1671130068001299
 40
-0.1671130068001299
 40
-0.1556207660334736
 40
-0.1556207660334736
 40
-0.1474916765624644
 40
-0.1474916765624644
 40
-0.1474916765624644
 40
-0.1474916765624644
 10
139.3574723508933
 20
79.72945636152819
 30
14.57809452360746
 10
139.3904968170714
 20
79.74692295505272
 30
14.55902783917015
 10
139.422217594792
 20
79.76171500210083
 30
14.53568178102821
 10
139.4726207752805
 20
79.7803554528012
 30
14.48788044821456
 10
139.4921829666123
 20
79.78600212036444
 30
14.46583954968657
 10
139.5233089915359
 20
79.79159083456885
 30
14.423636393364
 10
139.5355003457039
 20
79.79254741375851
 30
14.40451652925506
 10
139.5579417218682
 20
79.79147122561819
 30
14.36339662011298
 10
139.5678676726706
 20
79.78924548425069
 30
14.34155508216125
 10
139.5887763859769
 20
79.77970170189594
 30
14.28529456617861
 10
139.5973714067564
 20
79.77043041266305
 30
14.2508767846164
 10
139.6058186909627
 20
79.74998406724559
 30
14.192496727832
 10
139.6074723508931
 20
79.74021721628857
 30
14.16857510582072
 10
139.6074723508931
 20
79.72945636152819
 30
14.14508182171521
1001
ACAD_VIEW_EDGE_ID
1071
       71
1071
       -1
1071
        4
1071
        0
  0
LINE
  5
B48
330
1F
100
AcDbEntity
  8
Visible Narrow
100
AcDbLine
 10
139.3574721851618
 20
82.65834416098625
 30
14.57809501148967
 11
139.3574721851618
 21
79.7294561609863
 31
14.57809501148967
  0
LINE
  5
B49
330
1F
100
AcDbEntity
  8
Visible Narrow
100
AcDbLine
 10
114.8574721851618
 20
79.7294561609863
 30
28.72317601148968
 11
114.8574721851618
 21
82.65834416098625
 31
28.72317601148968
  0
SPLINE
  5
B4A
330
1F
100
AcDbEntity
  8
Visible
100
AcDbSpline
210
-0.4999999999999159
220
0.0000000000004443
230
-0.8660254037844872
 70
     8
 71
     3
 72
    14
 73
    10
 74
     0
 42
0.000000001
 43
0.0000000001
 40
0.6696661139047241
 40
0.6696661139047241
 40
0.6696661139047241
 40
0.6696661139047241
 40
0.9391569364577778
 40
0.9391569364577778
 40
1.208647759010831
 40
1.208647759010831
 40
1.330518091643122
 40
1.330518091643122
 40
1.340953249559416
 40
1.340953249559416
 40
1.340953249559416
 40
1.340953249559416
 10
120.9228148555972
 20
78.65834423391729
 30
25.22134899093539
 10
120.1448618608715
 20
78.65834423391729
 30
25.67050036185714
 10
119.2893505116368
 20
78.68074302022738
 30
26.16443006963264
 10
117.5933759872873
 20
78.85437944390222
 30
27.1436014178042
 10
116.7531434227963
 20
79.00860738958662
 30
27.62870991509508
 10
115.6654279812879
 20
79.3611941477732
 30
28.25670271805212
 10
115.2990977338355
 20
79.50417652771401
 30
28.468203585031
 10
114.9173521192691
 20
79.69810538692152
 30
28.68860451836192
 10
114.8873474063526
 20
79.71365528985669
 30
28.70592774744214
 10
114.8574719783642
 20
79.72945636152819
 30
28.72317633383302
1001
ACAD_VIEW_EDGE_ID
1071
       74
1071
       -1
1071
        4
1071
        0
  0
SPLINE
  5
B4B
330
1F
100
AcDbEntity
  8
Visible
100
AcDbSpline
210
-0.4999999999999717
220
-0.0000000000000429
230
-0.866025403784455
 70
     8
 71
     3
 72
    14
 73
    10
 74
     0
 42
0.000000001
 43
0.0000000001
 40
-1.340953249559416
 40
-1.340953249559416
 40
-1.340953249559416
 40
-1.340953249559416
 40
-1.330518091643122
 40
-1.330518091643122
 40
-1.208647759010831
 40
-1.208647759010831
 40
-0.9391569364577776
 40
-0.9391569364577776
 40
-0.6696661139047242
 40
-0.6696661139047242
 40
-0.6696661139047242
 40
-0.6696661139047242
 10
139.3574723508933
 20
79.72945636152819
 30
14.57809452360746
 10
139.3275969229049
 20
79.71365528985669
 30
14.59534310999834
 10
139.297592209988
 20
79.69810538692152
 30
14.61266633907856
 10
138.9158465954219
 20
79.50417652771401
 30
14.83306727240948
 10
138.5495163479696
 20
79.3611941477732
 30
15.04456813938835
 10
137.4618009064612
 20
79.00860738958662
 30
15.67256094234539
 10
136.6215683419699
 20
78.85437944390222
 30
16.15766943963627
 10
134.9255938176206
 20
78.68074302022738
 30
17.13684078780784
 10
134.0700824683859
 20
78.65834423391729
 30
17.63077049558334
 10
133.2921294736603
 20
78.65834423391729
 30
18.07992186650509
1001
ACAD_VIEW_EDGE_ID
1071
       75
1071
       -1
1071
        4
1071
        0
  0
SPLINE
  5
B4C
330
1F
100
AcDbEntity
  8
Visible
100
AcDbSpline
 70
     0
 71
     3
 72
    18
 73
    14
 74
     0
 42
0.000000001
 43
0.0000000001
 40
-0.2039984761391155
 40
-0.2039984761391155
 40
-0.2039984761391155
 40
-0.2039984761391155
 40
-0.1910498093340533
 40
-0.1910498093340533
 40
-0.18173501419056
 40
-0.18173501419056
 40
-0.1746564150170515
 40
-0.1746564150170515
 40
-0.1671140980642983
 40
-0.1671140980642983
 40
-0.1556225583126398
 40
-0.1556225583126398
 40
-0.1474915653132699
 40
-0.1474915653132699
 40
-0.1474915653132699
 40
-0.1474915653132699
 10
114.3574719783641
 20
79.72945636152819
 30
28.72317633383302
 10
114.3904875795866
 20
79.7469182663892
 30
28.74223790008587
 10
114.4265557635949
 20
79.76170707878495
 30
28.75803252525112
 10
114.4931464959113
 20
79.78034959272847
 30
28.77778459723488
 10
114.5220197298181
 20
79.7859985616354
 30
28.7837079298307
 10
114.5741382048341
 20
79.79158984909318
 30
28.78956498351341
 10
114.5967941619906
 20
79.79254720243742
 30
28.79056388170371
 10
114.6436284111272
 20
79.79147208988374
 30
28.78943985373453
 10
114.6675073684269
 20
79.78924683296944
 30
28.78711571832264
 10
114.7266834594025
 20
79.77970451104489
 30
28.7770944827888
 10
114.760785957205
 20
79.77043466577312
 30
28.76733063928663
 10
114.8155726664604
 20
79.74998858708865
 30
28.74545654766013
 10
114.8371214887243
 20
79.7402197067598
 30
28.73492569450501
 10
114.8574719783642
 20
79.72945636152819
 30
28.72317633383302
1001
ACAD_VIEW_EDGE_ID
1071
       76
1071
       -1
1071
        4
1071
        0
  0
LINE
  5
B4D
330
1F
100
AcDbEntity
  8
Visible Narrow
100
AcDbLine
 10
114.3574721851618
 20
82.65834416098625
 30
28.72317601148968
 11
114.3574721851618
 21
79.7294561609863
 31
28.72317601148968
  0
SPLINE
  5
B4E
330
1F
100
AcDbEntity
  8
Visible
100
AcDbSpline
210
0.4999999999999261
220
-0.0000000000003721
230
-0.8660254037844811
 70
     8
 71
     3
 72
    14
 73
    10
 74
     0
 42
0.000000001
 43
0.0000000001
 40
0.6696661139047229
 40
0.6696661139047229
 40
0.6696661139047229
 40
0.6696661139047229
 40
0.9391569364577767
 40
0.9391569364577767
 40
1.208647759010831
 40
1.208647759010831
 40
1.330518091643122
 40
1.330518091643122
 40
1.340953249559414
 40
1.340953249559414
 40
1.340953249559414
 40
1.340953249559414
 10
95.92281448306811
 20
78.65834423391729
 30
18.0799218665051
 10
95.14486148834247
 20
78.65834423391729
 30
17.63077049558335
 10
94.28935013910765
 20
78.68074302022738
 30
17.13684078780786
 10
92.59337561475826
 20
78.85437944390222
 30
16.15766943963629
 10
91.75314305026736
 20
79.00860738958662
 30
15.6725609423454
 10
90.66542760875893
 20
79.3611941477732
 30
15.04456813938836
 10
90.29909736130646
 20
79.50417652771401
 30
14.83306727240948
 10
89.91735174674017
 20
79.69810538692152
 30
14.61266633907857
 10
89.88734703382363
 20
79.71365528985669
 30
14.59534310999835
 10
89.85747160583512
 20
79.72945636152819
 30
14.57809452360748
1001
ACAD_VIEW_EDGE_ID
1071
       78
1071
       -1
1071
        4
1071
        0
  0
SPLINE
  5
B4F
330
1F
100
AcDbEntity
  8
Visible
100
AcDbSpline
210
0.499999999999936
220
0.0000000000003529
230
-0.8660254037844755
 70
     8
 71
     3
 72
    14
 73
    10
 74
     0
 42
0.000000001
 43
0.0000000001
 40
-1.340953249559414
 40
-1.340953249559414
 40
-1.340953249559414
 40
-1.340953249559414
 40
-1.330518091643122
 40
-1.330518091643122
 40
-1.208647759010829
 40
-1.208647759010829
 40
-0.9391569364577767
 40
-0.9391569364577767
 40
-0.6696661139047225
 40
-0.6696661139047225
 40
-0.6696661139047225
 40
-0.6696661139047225
 10
114.3574719783641
 20
79.72945636152819
 30
28.72317633383302
 10
114.3275965503758
 20
79.71365528985669
 30
28.70592774744214
 10
114.2975918374591
 20
79.69810538692152
 30
28.68860451836192
 10
113.915846222893
 20
79.50417652771401
 30
28.468203585031
 10
113.5495159754405
 20
79.3611941477732
 30
28.25670271805212
 10
112.4618005339321
 20
79.00860738958662
 30
27.62870991509508
 10
111.621567969441
 20
78.85437944390222
 30
27.1436014178042
 10
109.9255934450917
 20
78.68074302022738
 30
26.16443006963264
 10
109.0700820958568
 20
78.65834423391729
 30
25.67050036185714
 10
108.2921291011312
 20
78.65834423391729
 30
25.22134899093539
1001
ACAD_VIEW_EDGE_ID
1071
       79
1071
       -1
1071
        4
1071
        0
  0
ARC
  5
B50
330
1F
100
AcDbEntity
  8
Visible
100
AcDbCircle
 10
-144.6074721851618
 20
83.15834416098628
 30
-0.0000000114896705
 40
0.5
210
0.0
220
0.0
230
-1.0
100
AcDbArc
 50
180.0
 51
270.0
  0
ARC
  5
B51
330
1F
100
AcDbEntity
  8
Visible
100
AcDbCircle
 10
-84.60747118516179
 20
83.15834416098628
 30
-0.0000000114896705
 40
0.5
210
0.0
220
0.0
230
-1.0
100
AcDbArc
 50
270.0
 51
0.0
  0
LINE
  5
B52
330
1F
100
AcDbEntity
  8
Visible
100
AcDbLine
 10
84.10747118516178
 20
83.15834416098628
 30
0.0000000114896705
 11
84.10747118516178
 21
84.65834416098628
 31
0.0000000114896705
  0
LINE
  5
B53
330
1F
100
AcDbEntity
  8
Visible
100
AcDbLine
 10
145.1074721851618
 20
83.15834416098628
 30
0.0000000114896705
 11
145.1074721851618
 21
84.65834416098628
 31
0.0000000114896705
  0
ARC
  5
B55
330
1F
100
AcDbEntity
  8
Visible
100
AcDbCircle
 10
-114.6074721851618
 20
0.0000000114896705
 30
113.7583441609863
 40
22.39999949485063
210
0.0
220
1.0
230
0.0
100
AcDbArc
 50
0.0
 51
180.0
  0
ARC
  5
B57
330
1F
100
AcDbEntity
  8
Visible
100
AcDbCircle
 10
114.6074721851618
 20
0.0000000114896705
 30
-114.2583441609863
 40
22.39999949485063
210
0.0
220
-1.0
230
0.0
100
AcDbArc
 50
0.0
 51
180.0
  0
ARC
  5
B58
330
1F
100
AcDbEntity
  8
Visible
100
AcDbCircle
 10
-92.20747218516184
 20
113.9583441609863
 30
-0.0000000114896705
 40
0.2
210
0.0
220
0.0
230
-1.0
100
AcDbArc
 50
270.0
 51
0.0
  0
ARC
  5
B59
330
1F
100
AcDbEntity
  8
Visible
100
AcDbCircle
 10
-137.0074711851617
 20
113.9583441609863
 30
-0.0000000114896705
 40
0.2
210
0.0
220
0.0
230
-1.0
100
AcDbArc
 50
180.0
 51
270.0
  0
LINE
  5
B5A
330
1F
100
AcDbEntity
  8
Visible
100
AcDbLine
 10
137.2074711851617
 20
114.0583441609863
 30
0.0000000114896705
 11
137.2074711851617
 21
113.9583441609863
 31
0.0000000114896705
  0
LINE
  5
B5B
330
1F
100
AcDbEntity
  8
Visible
100
AcDbLine
 10
92.00747218516182
 20
114.0583441609863
 30
0.0000000114896705
 11
92.00747218516182
 21
113.9583441609863
 31
0.0000000114896705
  0
ARC
  5
B5C
330
1F
100
AcDbEntity
  8
Visible
100
AcDbCircle
 10
-92.20747218516184
 20
114.0583441609863
 30
-0.0000000114896705
 40
0.2
210
0.0
220
0.0
230
-1.0
100
AcDbArc
 50
0.0
 51
90.0
  0
ARC
  5
B5D
330
1F
100
AcDbEntity
  8
Visible
100
AcDbCircle
 10
-137.0074711851617
 20
114.0583441609863
 30
-0.0000000114896705
 40
0.2
210
0.0
220
0.0
230
-1.0
100
AcDbArc
 50
90.0
 51
180.0
  0
LINE
  5
B5E
330
1F
100
AcDbEntity
  8
Visible
100
AcDbLine
 10
133.1074711851618
 20
114.3583441609862
 30
0.0000000114896705
 11
133.1074711851618
 21
114.2583441609863
 31
0.0000000114896705
  0
LINE
  5
B5F
330
1F
100
AcDbEntity
  8
Visible
100
AcDbLine
 10
96.10747218516184
 20
114.3583441609862
 30
0.0000000114896705
 11
96.10747218516184
 21
114.2583441609863
 31
0.0000000114896705
  0
LINE
  5
B60
330
1F
100
AcDbEntity
  8
Visible
100
AcDbLine
 10
133.1074711851618
 20
113.7583441609863
 30
0.0000000114896705
 11
133.1074711851618
 21
113.6583441609863
 31
0.0000000114896705
  0
LINE
  5
B61
330
1F
100
AcDbEntity
  8
Visible
100
AcDbLine
 10
96.10747218516184
 20
113.7583441609863
 30
0.0000000114896705
 11
96.10747218516184
 21
113.6583441609863
 31
0.0000000114896705
  0
ARC
  5
B62
330
1F
100
AcDbEntity
  8
Visible
100
AcDbCircle
 10
114.6074721851618
 20
0.0000000114896705
 30
-111.1081811609862
 40
17.5
210
-0.0000000000000001
220
-1.0
230
0.0
100
AcDbArc
 50
0.0
 51
180.0
  0
ARC
  5
B63
330
1F
100
AcDbEntity
  8
Visible
100
AcDbCircle
 10
114.6074721851618
 20
0.0000000114896705
 30
-112.4583441609862
 40
18.5999995842576
210
-0.0000000000000001
220
-1.0
230
0.0
100
AcDbArc
 50
0.0
 51
180.0
  0
ARC
  5
B64
330
1F
100
AcDbEntity
  8
Visible
100
AcDbCircle
 10
114.6074721851618
 20
0.0000000114896705
 30
-113.6583441609862
 40
18.5999995842576
210
-0.0000000000000001
220
-1.0
230
0.0
100
AcDbArc
 50
0.0
 51
180.0
  0
ARC
  5
B65
330
1F
100
AcDbEntity
  8
Visible
100
AcDbCircle
 10
114.6074721851618
 20
0.0000000114896705
 30
-114.3583441609862
 40
18.5999995842576
210
-0.0000000000000001
220
-1.0
230
0.0
100
AcDbArc
 50
0.0
 51
180.0
  0
ARC
  5
B66
330
1F
100
AcDbEntity
  8
Visible
100
AcDbCircle
 10
114.6074721851618
 20
0.0000000114896705
 30
-115.6583441609863
 40
18.5999995842576
210
-0.0000000000000001
220
-1.0
230
0.0
100
AcDbArc
 50
0.0
 51
180.0
  0
ARC
  5
B67
330
1F
100
AcDbEntity
  8
Visible Narrow
100
AcDbCircle
 10
81.05747318516183
 20
123.7359791609863
 30
0.0000000114896705
 40
1.250000000000001
100
AcDbArc
 50
106.8242990000004
 51
180.0
  0
SPLINE
  5
B6A
330
1F
100
AcDbEntity
  8
Visible Narrow
100
AcDbSpline
210
0.0
220
0.0
230
1.0
 70
    12
 71
     5
 72
    16
 73
    10
 74
     0
 42
0.000000001
 43
0.0000000001
 40
0.0
 40
0.0
 40
0.0
 40
0.0
 40
0.0
 40
0.0
 40
0.2
 40
0.4
 40
0.6000000000000001
 40
0.8
 40
0.9744083149929563
 40
0.9744083149929563
 40
0.9744083149929563
 40
0.9744083149929563
 40
0.9744083149929563
 40
0.9744083149929563
 10
114.6074719783642
 20
129.2583442205061
 30
0.0000000114896705
 41
1.0
 10
113.2108358141645
 20
129.2583442205061
 30
0.0000000114896705
 41
1.0
 10
110.4187395529694
 20
129.2258923038982
 30
0.0000000114896705
 41
1.0
 10
106.2341203573446
 20
129.079926036805
 30
0.0000000114896705
 41
1.0
 10
100.6608517204836
 20
128.7000666192536
 30
0.0000000114896705
 41
1.0
 10
93.88028601165343
 20
127.9164560094443
 30
0.0000000114896705
 41
1.0
 10
88.49652203474182
 20
126.9715244086921
 30
0.0000000114896705
 41
1.0
 10
84.50608870129826
 20
126.0293660065102
 30
0.0000000114896705
 41
1.0
 10
81.90638798746618
 20
125.298571088709
 30
0.0000000114896705
 41
1.0
 10
80.69567554985718
 20
124.9324751203233
 30
0.0000000114896705
 41
1.0
1001
ACAD_VIEW_EDGE_ID
1071
       24
1071
       -1
1071
        6
1071
        0
  0
ARC
  5
B6C
330
1F
100
AcDbEntity
  8
Visible
100
AcDbCircle
 10
-114.6074721851618
 20
0.0000000114896705
 30
123.1583451609864
 40
34.2999992221594
210
0.0
220
1.0
230
0.0
100
AcDbArc
 50
0.0
 51
180.0
  0
LINE
  5
B6D
330
1F
100
AcDbEntity
  8
Visible
100
AcDbLine
 10
132.1074721851618
 20
112.4583441609863
 30
0.0000000114896705
 11
132.1074721851618
 21
111.1081811609863
 31
0.0000000114896705
  0
LINE
  5
B6E
330
1F
100
AcDbEntity
  8
Visible
100
AcDbLine
 10
97.10747218516184
 20
112.4583441609863
 30
0.0000000114896705
 11
97.10747218516184
 21
111.1081811609863
 31
0.0000000114896705
  0
LINE
  5
B6F
330
1F
100
AcDbEntity
  8
Visible
100
AcDbLine
 10
133.2074711851617
 20
113.6583441609863
 30
0.0000000114896705
 11
133.2074711851617
 21
112.4583441609863
 31
0.0000000114896705
  0
LINE
  5
B70
330
1F
100
AcDbEntity
  8
Visible
100
AcDbLine
 10
96.00747218516184
 20
113.6583441609863
 30
0.0000000114896705
 11
96.00747218516184
 21
112.4583441609863
 31
0.0000000114896705
  0
LINE
  5
B71
330
1F
100
AcDbEntity
  8
Visible
100
AcDbLine
 10
133.2074711851617
 20
115.6583441609863
 30
0.0000000114896705
 11
133.2074711851617
 21
114.3583441609862
 31
0.0000000114896705
  0
LINE
  5
B72
330
1F
100
AcDbEntity
  8
Visible
100
AcDbLine
 10
96.00747218516184
 20
115.6583441609863
 30
0.0000000114896705
 11
96.00747218516184
 21
114.3583441609862
 31
0.0000000114896705
  0
LINE
  5
B73
330
1F
100
AcDbEntity
  8
Visible
100
AcDbLine
 10
132.1074721851618
 20
123.1583451609864
 30
0.0000000114896705
 11
132.1074721851618
 21
115.6583441609863
 31
0.0000000114896705
  0
LINE
  5
B74
330
1F
100
AcDbEntity
  8
Visible
100
AcDbLine
 10
97.10747218516184
 20
123.1583451609864
 30
0.0000000114896705
 11
97.10747218516184
 21
115.6583441609863
 31
0.0000000114896705
  0
ARC
  5
B75
330
1F
100
AcDbEntity
  8
Visible
100
AcDbCircle
 10
-148.1574711851618
 20
123.7359791609863
 30
-0.0000000114896705
 40
1.25
210
0.0
220
0.0
230
-1.0
100
AcDbArc
 50
106.8242990000004
 51
180.0
  0
ARC
  5
B76
330
1F
100
AcDbEntity
  8
Visible
100
AcDbCircle
 10
81.05747318516183
 20
123.7359791609863
 30
0.0000000114896705
 40
1.25
100
AcDbArc
 50
106.8242990000004
 51
180.0
  0
SPLINE
  5
B77
330
1F
100
AcDbEntity
  8
Visible
100
AcDbSpline
210
0.0
220
0.0
230
1.0
 70
     8
 71
     3
 72
    16
 73
    12
 74
     0
 42
0.000000001
 43
0.0000000001
 40
0.0
 40
0.0
 40
0.0
 40
0.0
 40
0.1948816629985912
 40
0.1948816629985912
 40
0.3897633259971825
 40
0.3897633259971825
 40
0.5846449889957738
 40
0.5846449889957738
 40
0.779526651994365
 40
0.779526651994365
 40
0.9744083149929558
 40
0.9744083149929558
 40
0.9744083149929558
 40
0.9744083149929558
 10
114.6074719783642
 20
129.2583442205061
 30
0.0000000114896705
 10
112.3393154926721
 20
129.2583442205061
 30
0.0000000114896705
 10
110.0730530055529
 20
129.206858764953
 30
0.0000000114896705
 10
105.5438573893385
 20
129.0040145692104
 30
0.0000000114896705
 10
103.2808975419716
 20
128.8532834685187
 30
0.0000000114896705
 10
98.75757252213544
 20
128.4459226381726
 30
0.0000000114896705
 10
96.49719743979359
 20
128.1894139212084
 30
0.0000000114896705
 10
91.9786438058141
 20
127.5420138040074
 30
0.0000000114896705
 10
89.7204676722518
 20
127.1506383515746
 30
0.0000000114896705
 10
85.20633908477201
 20
126.1874499943453
 30
0.0000000114896705
 10
82.95040036294592
 20
125.6142601902115
 30
0.0000000114896705
 10
80.69567554985718
 20
124.9324751203233
 30
0.0000000114896705
1001
ACAD_VIEW_EDGE_ID
1071
   -43009
1071
       -1
1071
        6
1071
        0
  0
SPLINE
  5
B78
330
1F
100
AcDbEntity
  8
Visible
100
AcDbSpline
210
-0.0000000000000001
220
0.0
230
1.0
 70
     8
 71
     3
 72
    16
 73
    12
 74
     0
 42
0.000000001
 43
0.0000000001
 40
0.0
 40
0.0
 40
0.0
 40
0.0
 40
0.1948816629985912
 40
0.1948816629985912
 40
0.3897633259971824
 40
0.3897633259971824
 40
0.5846449889957736
 40
0.5846449889957736
 40
0.7795266519943648
 40
0.7795266519943648
 40
0.9744083149929558
 40
0.9744083149929558
 40
0.9744083149929558
 40
0.9744083149929558
 10
114.6074719783642
 20
129.2583442205061
 30
0.0000000114896705
 10
116.8756284640561
 20
129.2583442205061
 30
0.0000000114896708
 10
119.1418909511754
 20
129.206858764953
 30
0.0000000114896711
 10
123.67108656739
 20
129.0040145692104
 30
0.0000000114896716
 10
125.9340464147566
 20
128.8532834685187
 30
0.0000000114896719
 10
130.4573714345929
 20
128.4459226381726
 30
0.0000000114896724
 10
132.7177465169348
 20
128.1894139212084
 30
0.0000000114896727
 10
137.2363001509144
 20
127.5420138040074
 30
0.0000000114896733
 10
139.4944762844765
 20
127.1506383515746
 30
0.0000000114896735
 10
144.0086048719563
 20
126.1874499943453
 30
0.0000000114896741
 10
146.2645435937825
 20
125.6142601902115
 30
0.0000000114896744
 10
148.5192684068711
 20
124.9324751203233
 30
0.0000000114896747
1001
ACAD_VIEW_EDGE_ID
1071
   -43010
1071
       -1
1071
        6
1071
        0
  0
LINE
  5
B79
330
1F
100
AcDbEntity
  8
Visible
100
AcDbLine
 10
79.80747318516183
 20
123.6583451609864
 30
0.0000000114896705
 11
79.80747318516183
 21
123.7359791609863
 31
0.0000000114896705
  0
LINE
  5
B7A
330
1F
100
AcDbEntity
  8
Visible
100
AcDbLine
 10
149.4074711851618
 20
123.6583451609864
 30
0.0000000114896705
 11
149.4074711851618
 21
123.7359791609863
 31
0.0000000114896705
  0
ARC
  5
B7B
330
1F
100
AcDbEntity
  8
Visible
100
AcDbCircle
 10
-148.9074711851618
 20
123.6583451609864
 30
-0.0000000114896705
 40
0.5
210
0.0
220
0.0
230
-1.0
100
AcDbArc
 50
180.0
 51
270.0
  0
ARC
  5
B7C
330
1F
100
AcDbEntity
  8
Visible
100
AcDbCircle
 10
-80.30747318516182
 20
123.6583451609864
 30
-0.0000000114896705
 40
0.5
210
0.0
220
0.0
230
-1.0
100
AcDbArc
 50
270.0
 51
0.0
  0
LINE
  5
B89
330
1F
100
AcDbEntity
  8
Visible Narrow
100
AcDbLine
 10
137.0299721851618
 20
73.1297541609863
 30
0.0000000114896705
 11
137.0299721851618
 21
73.22329916098637
 31
0.0000000114896705
  0
LINE
  5
B8A
330
1F
100
AcDbEntity
  8
Visible Narrow
100
AcDbLine
 10
137.0299721851618
 20
75.43884516098635
 30
0.0000000114896705
 11
137.0299721851618
 21
75.53239016098629
 31
0.0000000114896705
  0
LINE
  5
B8B
330
1F
100
AcDbEntity
  8
Visible Narrow
100
AcDbLine
 10
137.0299721851618
 20
77.74793616098626
 30
0.0000000114896705
 11
137.0299721851618
 21
77.84148116098631
 31
0.0000000114896705
  0
LINE
  5
B8C
330
1F
100
AcDbEntity
  8
Visible Narrow
100
AcDbLine
 10
137.0299721851618
 20
86.98429916098637
 30
0.0000000114896705
 11
137.0299721851618
 21
87.07784416098631
 31
0.0000000114896705
  0
LINE
  5
B8D
330
1F
100
AcDbEntity
  8
Visible Narrow
100
AcDbLine
 10
137.0299721851618
 20
89.29339016098628
 30
0.0000000114896705
 11
137.0299721851618
 21
89.38693516098631
 31
0.0000000114896705
  0
LINE
  5
B8E
330
1F
100
AcDbEntity
  8
Visible Narrow
100
AcDbLine
 10
137.0299721851618
 20
91.60248116098628
 30
0.0000000114896705
 11
137.0299721851618
 21
91.69602616098629
 31
0.0000000114896705
  0
LINE
  5
B8F
330
1F
100
AcDbEntity
  8
Visible Narrow
100
AcDbLine
 10
137.0299721851618
 20
93.91157216098632
 30
0.0000000114896705
 11
137.0299721851618
 21
94.00511716098632
 31
0.0000000114896705
  0
LINE
  5
B90
330
1F
100
AcDbEntity
  8
Visible Narrow
100
AcDbLine
 10
92.18497218516182
 20
92.85057216098634
 30
0.0000000114896705
 11
92.18497218516182
 21
92.75702716098631
 31
0.0000000114896705
  0
LINE
  5
B91
330
1F
100
AcDbEntity
  8
Visible Narrow
100
AcDbLine
 10
92.18497218516182
 20
90.54148116098629
 30
0.0000000114896705
 11
92.18497218516182
 21
90.44793616098628
 31
0.0000000114896705
  0
LINE
  5
B92
330
1F
100
AcDbEntity
  8
Visible Narrow
100
AcDbLine
 10
92.18497218516182
 20
88.23239016098629
 30
0.0000000114896705
 11
92.18497218516182
 21
88.13884516098632
 31
0.0000000114896705
  0
LINE
  5
B93
330
1F
100
AcDbEntity
  8
Visible Narrow
100
AcDbLine
 10
92.18497218516182
 20
76.68693516098628
 30
0.0000000114896705
 11
92.18497218516182
 21
76.59339016098626
 31
0.0000000114896705
  0
LINE
  5
B94
330
1F
100
AcDbEntity
  8
Visible Narrow
100
AcDbLine
 10
92.18497218516182
 20
74.37784416098631
 30
0.0000000114896705
 11
92.18497218516182
 21
74.28429916098635
 31
0.0000000114896705
  0
LINE
  5
B97
330
1F
100
AcDbEntity
  8
Visible Narrow
100
AcDbLine
 10
99.22559718516186
 20
82.65834416098625
 30
19.98678401148967
 11
99.22559718516186
 21
79.15834416098626
 31
19.98678401148967
  0
INSERT
  5
DE4
102
{ACAD_REACTORS
330
DE6
102
}
330
1F
100
AcDbEntity
  8
0
  6
CENTER2
 48
0.4
100
AcDbBlockReference
  2
*U7
 10
114.6074721851618
 20
104.8225751609863
 30
0.0000000114896705
  0
ENDSEC
  0
SECTION
  2
OBJECTS
  0
DICTIONARY
  5
C
330
0
100
AcDbDictionary
281
     1
  3
ACAD_ASSOCNETWORK
350
DD9
  3
ACAD_CIP_PREVIOUS_PRODUCT_INFO
350
216
  3
ACAD_COLOR
350
6B
  3
ACAD_DETAILVIEWSTYLE
350
21B
  3
ACAD_GROUP
350
D
  3
ACAD_LAYOUT
350
1A
  3
ACAD_MATERIAL
350
6A
  3
ACAD_MLEADERSTYLE
350
12D
  3
ACAD_MLINESTYLE
350
17
  3
ACAD_PLOTSETTINGS
350
19
  3
ACAD_PLOTSTYLENAME
350
E
  3
ACAD_SCALELIST
350
10C
  3
ACAD_SECTIONVIEWSTYLE
350
219
  3
ACAD_TABLESTYLE
350
7E
  3
ACAD_VISUALSTYLE
350
EF
  3
ACDB_RECOMPOSE_DATA
350
ECD
  3
AcDbVariableDictionary
350
5E
  3
AcDsDecomposeData
350
ED3
  0
DICTIONARY
  5
1FF
330
2
100
AcDbDictionary
280
     1
281
     1
  3
ACAD_LAYERSTATES
360
200
  0
DICTIONARY
  5
13C
330
10
100
AcDbDictionary
280
     1
281
     1
  0
DICTIONARY
  5
1CE
330
1F
100
AcDbDictionary
280
     1
281
     1
  3
ACAD_ASSOCNETWORK
360
DD7
  3
ACAD_SORTENTS
360
50B
  0
DICTIONARY
  5
6F8
330
6EB
100
AcDbDictionary
280
     1
281
     1
  3
ACAD_DIMASSOC
360
702
  0
DICTIONARY
  5
DD9
102
{ACAD_REACTORS
330
C
102
}
330
C
100
AcDbDictionary
281
     1
  3
ACAD_ASSOCNETWORK
350
DDA
  0
XRECORD
  5
216
102
{ACAD_REACTORS
330
C
102
}
330
C
100
AcDbXrecord
280
     1
300
ACD
300
2021
300

  0
DICTIONARY
  5
6B
102
{ACAD_REACTORS
330
C
102
}
330
C
100
AcDbDictionary
281
     1
  0
DICTIONARY
  5
21B
102
{ACAD_REACTORS
330
C
102
}
330
C
100
AcDbDictionary
281
     1
  3
Metric50
350
21C
  0
DICTIONARY
  5
D
102
{ACAD_REACTORS
330
C
102
}
330
C
100
AcDbDictionary
281
     1
  3
*A1
350
544
  3
*A2
350
54C
  0
DICTIONARY
  5
1A
102
{ACAD_REACTORS
330
C
102
}
330
C
100
AcDbDictionary
281
     1
  3
Layout1
350
D3
  3
Layout2
350
D7
  3
Model
350
22
  0
DICTIONARY
  5
6A
102
{ACAD_REACTORS
330
C
102
}
330
C
100
AcDbDictionary
281
     1
  3
ByBlock
350
ED
  3
ByLayer
350
EC
  3
Global
350
EE
  0
DICTIONARY
  5
12D
102
{ACAD_REACTORS
330
C
102
}
330
C
100
AcDbDictionary
281
     1
  3
Annotative
350
13B
  3
Standard
350
12E
  0
DICTIONARY
  5
17
102
{ACAD_REACTORS
330
C
102
}
330
C
100
AcDbDictionary
281
     1
  3
Standard
350
18
  0
DICTIONARY
  5
19
102
{ACAD_REACTORS
330
C
102
}
330
C
100
AcDbDictionary
281
     1
  0
ACDBDICTIONARYWDFLT
  5
E
102
{ACAD_REACTORS
330
C
102
}
330
C
100
AcDbDictionary
281
     1
  3
Normal
350
F
100
AcDbDictionaryWithDefault
340
F
  0
DICTIONARY
  5
10C
102
{ACAD_REACTORS
330
C
102
}
330
C
100
AcDbDictionary
281
     1
  3
A0
350
10D
  3
A1
350
1BE
  3
A2
350
1BF
  3
A3
350
1C0
  3
A4
350
1C1
  3
A5
350
1C2
  3
A6
350
1C3
  3
A7
350
1C4
  3
A8
350
1C5
  3
A9
350
1C6
  3
B0
350
1C7
  3
B1
350
1C8
  3
B2
350
1C9
  3
B3
350
1CA
  3
B4
350
1CB
  3
B5
350
1CC
  3
B6
350
1CD
  0
DICTIONARY
  5
219
102
{ACAD_REACTORS
330
C
102
}
330
C
100
AcDbDictionary
281
     1
  3
Metric50
350
21A
  0
DICTIONARY
  5
7E
102
{ACAD_REACTORS
330
C
102
}
330
C
100
AcDbDictionary
281
     1
  3
Standard
350
7F
  0
DICTIONARY
  5
EF
102
{ACAD_REACTORS
330
C
102
}
330
C
100
AcDbDictionary
281
     1
  3
2dWireframe
350
F5
  3
Basic
350
F4
  3
Brighten
350
FB
  3
ColorChange
350
FF
  3
Conceptual
350
F8
  3
Dim
350
FA
  3
EdgeColorOff
350
1E6
  3
Facepattern
350
FE
  3
Flat
350
F0
  3
FlatWithEdges
350
F1
  3
Gouraud
350
F2
  3
GouraudWithEdges
350
F3
  3
Hidden
350
F7
  3
JitterOff
350
1E4
  3
Linepattern
350
FD
  3
OverhangOff
350
1E5
  3
Realistic
350
F9
  3
Shaded
350
1F3
  3
Shaded with edges
350
1F2
  3
Shades of Gray
350
1EF
  3
Sketchy
350
1F0
  3
Thicken
350
FC
  3
Wireframe
350
F6
  3
X-Ray
350
1F1
  0
XRECORD
  5
ECD
102
{ACAD_REACTORS
330
C
102
}
330
C
100
AcDbXrecord
280
     1
 90
        1
330
7F
  0
DICTIONARY
  5
5E
102
{ACAD_REACTORS
330
C
102
}
330
C
100
AcDbDictionary
281
     1
  3
CANNOSCALE
350
146
  3
CENTEREXE
350
259
  3
CENTERLTYPEFILE
350
25A
  3
CMLEADERSTYLE
350
145
  3
CTABLESTYLE
350
84
  3
CVIEWDETAILSTYLE
350
227
  3
CVIEWSECTIONSTYLE
350
228
  3
DIMASSOC
350
5F
  3
HIDETEXT
350
63
  3
HPCOLOR
350
515
  3
HPTRANSPARENCY
350
514
  3
LAYEREVAL
350
1AE
  3
LAYERNOTIFY
350
1AF
  0
DICTIONARY
  5
ED3
102
{ACAD_REACTORS
330
C
102
}
330
C
100
AcDbDictionary
281
     1
  3
AcDsRecords
350
ED5
  3
AcDsSchemas
350
ED4
1001
ACAD
1070
     2
  0
DICTIONARY
  5
200
102
{ACAD_REACTORS
330
1FF
102
}
330
1FF
100
AcDbDictionary
281
     1
  0
DICTIONARY
  5
DD7
102
{ACAD_REACTORS
330
1CE
102
}
330
1CE
100
AcDbDictionary
281
     1
  3
ACAD_ASSOCNETWORK
350
DD8
  0
SORTENTSTABLE
  5
50B
102
{ACAD_REACTORS
330
1CE
102
}
330
1CE
100
AcDbSortentsTable
330
1F
331
3A7
  5
3A9
331
504
  5
50D
331
505
  5
51A
331
506
  5
51D
331
50A
  5
51B
331
51A
  5
51E
331
543
  5
50C
  0
DIMASSOC
  5
702
102
{ACAD_REACTORS
330
6F8
102
}
330
6F8
100
AcDbDimAssoc
330
6EB
 90
        3
 70
     0
 71
     0
  1
AcDbOsnapPointRef
 72
    13
331
505
 73
     2
 91
        0
 40
0.0
 10
29.60758287087822
 20
39.80912700000001
 30
0.0
 75
     0
  1
AcDbOsnapPointRef
 72
    13
331
548
 73
     2
 91
        0
 40
0.0
 10
83.53645604317369
 20
39.80912700000001
 30
0.0
 75
     0
  0
ACDBASSOCNETWORK
  5
DDA
102
{ACAD_REACTORS
330
DD9
102
}
330
DD9
100
AcDbAssocAction
 90
        2
 90
        0
330
0
360
0
 90
        0
 90
        0
 90
        0
 90
        0
 90
        0
 90
        0
 90
        0
100
AcDbAssocNetwork
 90
        0
 90
        1
 90
        1
330
DD8
 90
        0
  0
ACDBDETAILVIEWSTYLE
  5
21C
102
{ACAD_XDICTIONARY
360
ED8
102
}
102
{ACAD_REACTORS
330
21B
102
}
330
21B
100
AcDbModelDocViewStyle
 70
     0
  3
Metric50
290
     0
100
AcDbDetailViewStyle
 70
     0
 71
     0
 90
        3
 71
     1
340
11
 62
   256
 40
5.0
340
0
 62
   256
 40
5.0
300

 40
0.0
280
     1
 71
     2
340
16
 90
       25
 62
   256
 71
     3
340
11
 62
   256
 40
5.0
 90
        0
 40
15.0
 90
        1
300
%<\AcVar ViewDetailId>% (%<\AcVar ViewScale \f "%sn">%)
 71
     4
340
16
 90
       25
 62
   256
340
16
 90
       25
 62
   256
280
     0
  0
GROUP
  5
544
102
{ACAD_REACTORS
330
D
102
}
330
D
100
AcDbGroup
300

 70
     1
 71
     1
340
51A
340
505
340
543
340
506
340
50A
340
504
  0
GROUP
  5
54C
102
{ACAD_REACTORS
330
D
102
}
330
D
100
AcDbGroup
300

 70
     1
 71
     1
340
54B
340
548
340
546
340
54A
340
549
340
547
  0
LAYOUT
  5
D3
102
{ACAD_REACTORS
330
1A
102
}
330
1A
100
AcDbPlotSettings
  1

  2
C:\Documents and Settings\basas\Application Data\Autodesk\AutoCAD 2005\R16.1\enu\plotters\Default Windows System Printer.pc3
  4

  6

 40
0.0
 41
0.0
 42
0.0
 43
0.0
 44
0.0
 45
0.0
 46
0.0
 47
0.0
 48
0.0
 49
0.0
140
0.0
141
0.0
142
1.0
143
1.0
 70
   688
 72
     0
 73
     0
 74
     5
  7

 75
    16
147
1.0
 76
     0
 77
     2
 78
   300
148
0.0
149
0.0
100
AcDbLayout
  1
Layout1
 70
     1
 71
     1
 10
0.0
 20
0.0
 11
12.0
 21
9.0
 12
0.0
 22
0.0
 32
0.0
 14
0.0
 24
0.0
 34
0.0
 15
0.0
 25
0.0
 35
0.0
146
0.0
 13
0.0
 23
0.0
 33
0.0
 16
1.0
 26
0.0
 36
0.0
 17
0.0
 27
1.0
 37
0.0
 76
     0
330
D2
  0
LAYOUT
  5
D7
102
{ACAD_REACTORS
330
1A
102
}
330
1A
100
AcDbPlotSettings
  1

  2
C:\Documents and Settings\basas\Application Data\Autodesk\AutoCAD 2005\R16.1\enu\plotters\Default Windows System Printer.pc3
  4

  6

 40
0.0
 41
0.0
 42
0.0
 43
0.0
 44
0.0
 45
0.0
 46
0.0
 47
0.0
 48
0.0
 49
0.0
140
0.0
141
0.0
142
1.0
143
1.0
 70
   688
 72
     0
 73
     0
 74
     5
  7

 75
    16
147
1.0
 76
     0
 77
     2
 78
   300
148
0.0
149
0.0
100
AcDbLayout
  1
Layout2
 70
     1
 71
     2
 10
0.0
 20
0.0
 11
12.0
 21
9.0
 12
0.0
 22
0.0
 32
0.0
 14
0.0
 24
0.0
 34
0.0
 15
0.0
 25
0.0
 35
0.0
146
0.0
 13
0.0
 23
0.0
 33
0.0
 16
1.0
 26
0.0
 36
0.0
 17
0.0
 27
1.0
 37
0.0
 76
     0
330
D6
  0
LAYOUT
  5
22
102
{ACAD_XDICTIONARY
360
205
102
}
102
{ACAD_REACTORS
330
1A
102
}
330
1A
100
AcDbPlotSettings
  1

  2
none_device
  4
ISO_A4_(210.00_x_297.00_MM)
  6

 40
7.5
 41
20.0
 42
7.5
 43
20.0
 44
210.0
 45
297.0
 46
11.54999923706054
 47
-13.65000009536743
 48
0.0
 49
0.0
140
0.0
141
0.0
142
1.0
143
8.704084754739808
 70
 11952
 72
     1
 73
     0
 74
     0
  7

 75
     0
147
0.1148885871608098
 76
     0
 77
     2
 78
   300
148
0.0
149
0.0
100
AcDbLayout
  1
Model
 70
     1
 71
     0
 10
0.0
 20
0.0
 11
12.0
 21
9.0
 12
0.0
 22
0.0
 32
0.0
 14
0.0
 24
0.0
 34
0.0
 15
0.0
 25
0.0
 35
0.0
146
0.0
 13
0.0
 23
0.0
 33
0.0
 16
1.0
 26
0.0
 36
0.0
 17
0.0
 27
1.0
 37
0.0
 76
     0
330
1F
331
EA
1001
ACAD_PSEXT
1000
None
1000
None
1000
Not applicable
1000
The layout will not be plotted unless a new plotter configuration name is selected.
1070
     0
  0
MATERIAL
  5
ED
102
{ACAD_XDICTIONARY
360
1F9
102
}
102
{ACAD_REACTORS
330
6A
102
}
330
6A
100
AcDbMaterial
  1
ByBlock
 94
       63
  0
MATERIAL
  5
EC
102
{ACAD_XDICTIONARY
360
1F7
102
}
102
{ACAD_REACTORS
330
6A
102
}
330
6A
100
AcDbMaterial
  1
ByLayer
 94
       63
  0
MATERIAL
  5
EE
102
{ACAD_XDICTIONARY
360
173
102
}
102
{ACAD_REACTORS
330
6A
102
}
330
6A
100
AcDbMaterial
  1
Global
 43
0.0007999999797903
 43
0.0
 43
0.0
 43
0.0
 43
0.0
 43
0.0007999999797903
 43
0.0
 43
0.0
 43
0.0
 43
0.0
 43
1.0
 43
0.0
 43
0.0
 43
0.0
 43
0.0
 43
1.0
 49
0.0007999999797903
 49
0.0
 49
0.0
 49
0.0
 49
0.0
 49
0.0007999999797903
 49
0.0
 49
0.0
 49
0.0
 49
0.0
 49
1.0
 49
0.0
 49
0.0
 49
0.0
 49
0.0
 49
1.0
142
0.0007999999797903
142
0.0
142
0.0
142
0.0
142
0.0
142
0.0007999999797903
142
0.0
142
0.0
142
0.0
142
0.0
142
1.0
142
0.0
142
0.0
142
0.0
142
0.0
142
1.0
144
0.0007999999797903
144
0.0
144
0.0
144
0.0
144
0.0
144
0.0007999999797903
144
0.0
144
0.0
144
0.0
144
0.0
144
1.0
144
0.0
144
0.0
144
0.0
144
0.0
144
1.0
 94
       63
1001
ACAD
1070
    -1
1070
     3
1070
     0
1000

1071
        0
1070
     0
  0
MLEADERSTYLE
  5
13B
102
{ACAD_REACTORS
330
12D
102
}
330
12D
100
AcDbMLeaderStyle
179
     2
170
     2
171
     1
172
     0
 90
        2
 40
0.0
 41
0.0
173
     1
 91
-1056964608
340
14
 92
       -2
290
     1
 42
2.0
291
     1
 43
8.0
  3
Standard
 44
4.0
300

342
11
174
     1
178
     1
175
     1
176
     0
 93
-1056964608
 45
4.0
292
     0
297
     0
 46
4.0
 94
-1056964608
 47
1.0
 49
1.0
140
1.0
293
     1
141
0.0
294
     1
177
     0
142
1.0
295
     0
296
     1
143
3.75
271
     0
272
     9
273
     9
298
     0
  0
MLEADERSTYLE
  5
12E
102
{ACAD_REACTORS
330
12D
102
}
330
12D
100
AcDbMLeaderStyle
179
     2
170
     2
171
     1
172
     0
 90
        2
 40
0.0
 41
0.0
173
     1
 91
-1056964608
340
14
 92
       -2
290
     1
 42
2.0
291
     1
 43
8.0
  3
Standard
 44
4.0
300

342
11
174
     1
178
     1
175
     1
176
     0
 93
-1056964608
 45
4.0
292
     0
297
     0
 46
4.0
 94
-1056964608
 47
1.0
 49
1.0
140
1.0
293
     1
141
0.0
294
     1
177
     0
142
1.0
295
     0
296
     0
143
3.75
271
     0
272
     9
273
     9
298
     0
  0
MLINESTYLE
  5
18
102
{ACAD_REACTORS
330
17
102
}
330
17
100
AcDbMlineStyle
  2
STANDARD
 70
     0
  3

 62
   256
 51
90.0
 52
90.0
 71
     2
 49
0.5
 62
   256
  6
BYLAYER
 49
-0.5
 62
   256
  6
BYLAYER
  0
ACDBPLACEHOLDER
  5
F
102
{ACAD_REACTORS
330
E
102
}
330
E
  0
SCALE
  5
10D
102
{ACAD_REACTORS
330
10C
102
}
330
10C
100
AcDbScale
 70
     0
300
1:1
140
1.0
141
1.0
290
     1
  0
SCALE
  5
1BE
102
{ACAD_REACTORS
330
10C
102
}
330
10C
100
AcDbScale
 70
     0
300
1:2
140
1.0
141
2.0
290
     0
  0
SCALE
  5
1BF
102
{ACAD_REACTORS
330
10C
102
}
330
10C
100
AcDbScale
 70
     0
300
1:4
140
1.0
141
4.0
290
     0
  0
SCALE
  5
1C0
102
{ACAD_REACTORS
330
10C
102
}
330
10C
100
AcDbScale
 70
     0
300
1:5
140
1.0
141
5.0
290
     0
  0
SCALE
  5
1C1
102
{ACAD_REACTORS
330
10C
102
}
330
10C
100
AcDbScale
 70
     0
300
1:8
140
1.0
141
8.0
290
     0
  0
SCALE
  5
1C2
102
{ACAD_REACTORS
330
10C
102
}
330
10C
100
AcDbScale
 70
     0
300
1:10
140
1.0
141
10.0
290
     0
  0
SCALE
  5
1C3
102
{ACAD_REACTORS
330
10C
102
}
330
10C
100
AcDbScale
 70
     0
300
1:16
140
1.0
141
16.0
290
     0
  0
SCALE
  5
1C4
102
{ACAD_REACTORS
330
10C
102
}
330
10C
100
AcDbScale
 70
     0
300
1:20
140
1.0
141
20.0
290
     0
  0
SCALE
  5
1C5
102
{ACAD_REACTORS
330
10C
102
}
330
10C
100
AcDbScale
 70
     0
300
1:30
140
1.0
141
30.0
290
     0
  0
SCALE
  5
1C6
102
{ACAD_REACTORS
330
10C
102
}
330
10C
100
AcDbScale
 70
     0
300
1:40
140
1.0
141
40.0
290
     0
  0
SCALE
  5
1C7
102
{ACAD_REACTORS
330
10C
102
}
330
10C
100
AcDbScale
 70
     0
300
1:50
140
1.0
141
50.0
290
     0
  0
SCALE
  5
1C8
102
{ACAD_REACTORS
330
10C
102
}
330
10C
100
AcDbScale
 70
     0
300
1:100
140
1.0
141
100.0
290
     0
  0
SCALE
  5
1C9
102
{ACAD_REACTORS
330
10C
102
}
330
10C
100
AcDbScale
 70
     0
300
2:1
140
2.0
141
1.0
290
     0
  0
SCALE
  5
1CA
102
{ACAD_REACTORS
330
10C
102
}
330
10C
100
AcDbScale
 70
     0
300
4:1
140
4.0
141
1.0
290
     0
  0
SCALE
  5
1CB
102
{ACAD_REACTORS
330
10C
102
}
330
10C
100
AcDbScale
 70
     0
300
8:1
140
8.0
141
1.0
290
     0
  0
SCALE
  5
1CC
102
{ACAD_REACTORS
330
10C
102
}
330
10C
100
AcDbScale
 70
     0
300
10:1
140
10.0
141
1.0
290
     0
  0
SCALE
  5
1CD
102
{ACAD_REACTORS
330
10C
102
}
330
10C
100
AcDbScale
 70
     0
300
100:1
140
100.0
141
1.0
290
     0
  0
ACDBSECTIONVIEWSTYLE
  5
21A
102
{ACAD_XDICTIONARY
360
ED6
102
}
102
{ACAD_REACTORS
330
219
102
}
330
219
100
AcDbModelDocViewStyle
 70
     0
  3
Metric50
290
     0
100
AcDbSectionViewStyle
 70
     0
 71
     0
 90
      102
 71
     1
340
11
 62
   256
 40
5.0
340
0
340
0
 62
   256
 40
5.0
300
I, O, Q, S, X, Z
 40
10.0
 90
        0
 40
2.5
 90
        0
 71
     2
340
16
 90
       25
 62
   256
340
16
 90
       50
 62
   256
 40
5.0
 40
2.5
 40
5.0
 71
     3
340
11
 62
   256
 40
5.0
 90
        0
 40
15.0
 90
        1
300
%<\AcVar ViewSectionStartId>%-%<\AcVar ViewSectionEndId>% (%<\AcVar ViewScale \f "%sn">%)
 71
     4
 62
   256
 62
   257
300
ANSI31
 40
1.0
 90
        0
290
     0
290
     0
 90
        6
 40
0.0
 40
1.570796326794896
 40
0.2617993877991494
 40
1.308996938995747
 40
-0.2617993877991494
 40
1.832595714594045
  0
TABLESTYLE
  5
7F
102
{ACAD_XDICTIONARY
360
162
102
}
102
{ACAD_REACTORS
330
7E
102
}
330
7E
100
AcDbTableStyle
280
     0
  3
Standard
 70
     0
 71
     0
 40
1.5
 41
1.5
280
     0
281
     0
  7
Standard
140
4.5
170
     2
 62
     0
 63
     7
283
     0
 90
      512
 91
        0
  1

274
    -2
284
     1
 64
     0
275
    -2
285
     1
 65
     0
276
    -2
286
     1
 66
     0
277
    -2
287
     1
 67
     0
278
    -2
288
     1
 68
     0
279
    -2
289
     1
 69
     0
  7
Standard
140
6.0
170
     5
 62
     0
 63
     7
283
     0
 90
      512
 91
        0
  1

274
    -2
284
     1
 64
     0
275
    -2
285
     1
 65
     0
276
    -2
286
     1
 66
     0
277
    -2
287
     1
 67
     0
278
    -2
288
     1
 68
     0
279
    -2
289
     1
 69
     0
  7
Standard
140
4.5
170
     5
 62
     0
 63
     7
283
     0
 90
      512
 91
        0
  1

274
    -2
284
     1
 64
     0
275
    -2
285
     1
 65
     0
276
    -2
286
     1
 66
     0
277
    -2
287
     1
 67
     0
278
    -2
288
     1
 68
     0
279
    -2
289
     1
 69
     0
  0
VISUALSTYLE
  5
F5
102
{ACAD_REACTORS
330
EF
102
}
330
EF
100
AcDbVisualStyle
  2
2dWireframe
 70
     4
177
     3
291
     0
 70
    58
 90
        0
176
     1
 90
        2
176
     1
 90
        1
176
     1
 90
        0
176
     1
 40
0.6
176
     1
 40
30.0
176
     1
 62
     7
420
 16777215
176
     1
 90
        1
176
     1
 90
        4
176
     1
 62
     7
176
     1
 62
   257
176
     1
 90
        1
176
     1
 90
        1
176
     1
 40
1.0
176
     1
 90
        0
176
     1
 62
   257
176
     1
 40
1.0
176
     1
 90
        1
176
     1
 90
        6
176
     1
 90
        2
176
     1
 62
     7
176
     1
 90
        5
176
     1
 90
        0
176
     1
 90
        0
176
     1
290
     0
176
     1
 90
        1
176
     1
 40
0.0
176
     1
 90
        0
176
     1
290
     1
176
     1
290
     1
176
     1
290
     0
176
     1
290
     0
176
     1
290
     0
176
     1
290
     0
176
     1
290
     0
176
     1
290
     0
176
     1
290
     0
176
     1
 90
       50
176
     1
 40
0.0
176
     1
 40
1.0
176
     1
 90
        0
176
     1
 62
    18
176
     1
 90
       50
176
     1
 90
        3
176
     1
 62
     5
420
      255
176
     1
290
     0
176
     1
 90
       50
176
     1
 90
       50
176
     1
 90
       50
176
     1
290
     0
176
     1
 90
       50
176
     1
 62
   256
176
     0
 40
1.0
176
     0
 90
        2
176
     1
  1
strokes_ogs.tif
176
     1
290
     0
176
     1
 40
1.0
176
     1
 40
1.0
176
     1
1001
ACAD
1000
AcDbSavedByObjectVersion
1070
     0
  0
VISUALSTYLE
  5
F4
102
{ACAD_REACTORS
330
EF
102
}
330
EF
100
AcDbVisualStyle
  2
Basic
 70
     7
177
     3
291
     1
 70
    58
 90
        1
176
     1
 90
        0
176
     1
 90
        1
176
     1
 90
        0
176
     1
 40
0.6
176
     1
 40
30.0
176
     1
 62
     7
420
 16777215
176
     1
 90
        0
176
     1
 90
        4
176
     1
 62
     7
176
     1
 62
   257
176
     1
 90
        1
176
     1
 90
        1
176
     1
 40
1.0
176
     1
 90
        8
176
     1
 62
     7
176
     1
 40
1.0
176
     1
 90
        1
176
     1
 90
        6
176
     1
 90
        2
176
     1
 62
     7
176
     1
 90
        5
176
     1
 90
        0
176
     1
 90
        0
176
     1
290
     0
176
     1
 90
        1
176
     1
 40
0.0
176
     1
 90
        0
176
     1
290
     0
176
     1
290
     1
176
     1
290
     1
176
     1
290
     0
176
     1
290
     0
176
     1
290
     0
176
     1
290
     0
176
     1
290
     0
176
     1
290
     0
176
     1
 90
       50
176
     1
 40
0.0
176
     1
 40
1.0
176
     1
 90
        0
176
     1
 62
    18
176
     1
 90
       50
176
     1
 90
        3
176
     1
 62
     5
420
      255
176
     1
290
     0
176
     1
 90
       50
176
     1
 90
       50
176
     1
 90
       50
176
     1
290
     0
176
     1
 90
       50
176
     1
 62
   256
176
     0
 40
1.0
176
     0
 90
        2
176
     1
  1
strokes_ogs.tif
176
     1
290
     0
176
     1
 40
1.0
176
     1
 40
1.0
176
     1
1001
ACAD
1000
AcDbSavedByObjectVersion
1070
     0
  0
VISUALSTYLE
  5
FB
102
{ACAD_REACTORS
330
EF
102
}
330
EF
100
AcDbVisualStyle
  2
Brighten
 70
    12
177
     3
291
     1
 70
    58
 90
        2
176
     1
 90
        2
176
     1
 90
        1
176
     1
 90
        0
176
     1
 40
0.6
176
     1
 40
30.0
176
     1
 62
     7
420
 16777215
176
     1
 90
        1
176
     1
 90
        4
176
     1
 62
     7
176
     1
 62
   257
176
     1
 90
        1
176
     1
 90
        1
176
     1
 40
1.0
176
     1
 90
        8
176
     1
 62
     7
176
     1
 40
1.0
176
     1
 90
        1
176
     1
 90
        6
176
     1
 90
        2
176
     1
 62
     7
176
     1
 90
        5
176
     1
 90
        0
176
     1
 90
        0
176
     1
290
     0
176
     1
 90
        1
176
     1
 40
50.0
176
     1
 90
        0
176
     1
290
     0
176
     1
290
     1
176
     1
290
     1
176
     1
290
     0
176
     1
290
     0
176
     1
290
     0
176
     1
290
     0
176
     1
290
     0
176
     1
290
     0
176
     1
 90
       50
176
     1
 40
0.0
176
     1
 40
1.0
176
     1
 90
        0
176
     1
 62
    18
176
     1
 90
       50
176
     1
 90
        3
176
     1
 62
     5
420
      255
176
     1
290
     0
176
     1
 90
       50
176
     1
 90
       50
176
     1
 90
       50
176
     1
290
     0
176
     1
 90
       50
176
     1
 62
   256
176
     0
 40
1.0
176
     0
 90
        2
176
     1
  1
strokes_ogs.tif
176
     1
290
     0
176
     1
 40
1.0
176
     1
 40
1.0
176
     1
1001
ACAD
1000
AcDbSavedByObjectVersion
1070
     0
  0
VISUALSTYLE
  5
FF
102
{ACAD_REACTORS
330
EF
102
}
330
EF
100
AcDbVisualStyle
  2
ColorChange
 70
    16
177
     3
291
     1
 70
    58
 90
        2
176
     1
 90
        2
176
     1
 90
        3
176
     1
 90
        0
176
     1
 40
0.6
176
     1
 40
30.0
176
     1
 62
     8
420
  8421504
176
     1
 90
        1
176
     1
 90
        4
176
     1
 62
     7
176
     1
 62
   257
176
     1
 90
        1
176
     1
 90
        1
176
     1
 40
1.0
176
     1
 90
        8
176
     1
 62
     8
420
  8421504
176
     1
 40
1.0
176
     1
 90
        1
176
     1
 90
        6
176
     1
 90
        2
176
     1
 62
     7
176
     1
 90
        5
176
     1
 90
        0
176
     1
 90
        0
176
     1
290
     0
176
     1
 90
        1
176
     1
 40
0.0
176
     1
 90
        0
176
     1
290
     0
176
     1
290
     1
176
     1
290
     1
176
     1
290
     0
176
     1
290
     0
176
     1
290
     0
176
     1
290
     0
176
     1
290
     0
176
     1
290
     0
176
     1
 90
       50
176
     1
 40
0.0
176
     1
 40
1.0
176
     1
 90
        0
176
     1
 62
    18
176
     1
 90
       50
176
     1
 90
        3
176
     1
 62
     5
420
      255
176
     1
290
     0
176
     1
 90
       50
176
     1
 90
       50
176
     1
 90
       50
176
     1
290
     0
176
     1
 90
       50
176
     1
 62
   256
176
     0
 40
1.0
176
     0
 90
        2
176
     1
  1
strokes_ogs.tif
176
     1
290
     0
176
     1
 40
1.0
176
     1
 40
1.0
176
     1
1001
ACAD
1000
AcDbSavedByObjectVersion
1070
     0
  0
VISUALSTYLE
  5
F8
102
{ACAD_REACTORS
330
EF
102
}
330
EF
100
AcDbVisualStyle
  2
Conceptual
 70
     9
177
     3
291
     0
 70
    58
 90
        3
176
     1
 90
        2
176
     1
 90
        1
176
     1
 90
        0
176
     1
 40
0.6
176
     1
 40
30.0
176
     1
 62
     7
420
 16777215
176
     1
 90
        2
176
     1
 90
        2
176
     1
 62
     7
176
     1
 62
   257
176
     1
 90
        1
176
     1
 90
        1
176
     1
 40
40.0
176
     1
 90
        8
176
     1
 62
     7
176
     1
 40
1.0
176
     1
 90
        1
176
     1
 90
        6
176
     1
 90
        2
176
     1
 62
     7
176
     1
 90
        3
176
     1
 90
        0
176
     1
 90
        0
176
     1
290
     0
176
     1
 90
        1
176
     1
 40
0.0
176
     1
 90
        0
176
     1
290
     0
176
     1
290
     1
176
     1
290
     1
176
     1
290
     0
176
     1
290
     0
176
     1
290
     0
176
     1
290
     0
176
     1
290
     0
176
     1
290
     0
176
     1
 90
       50
176
     1
 40
0.0
176
     1
 40
1.0
176
     1
 90
        0
176
     1
 62
    18
176
     1
 90
       50
176
     1
 90
        3
176
     1
 62
     5
420
      255
176
     1
290
     0
176
     1
 90
       50
176
     1
 90
       50
176
     1
 90
       50
176
     1
290
     0
176
     1
 90
       50
176
     1
 62
   256
176
     0
 40
1.0
176
     0
 90
        2
176
     1
  1
strokes_ogs.tif
176
     1
290
     0
176
     1
 40
1.0
176
     1
 40
1.0
176
     1
1001
ACAD
1000
AcDbSavedByObjectVersion
1070
     0
  0
VISUALSTYLE
  5
FA
102
{ACAD_REACTORS
330
EF
102
}
330
EF
100
AcDbVisualStyle
  2
Dim
 70
    11
177
     3
291
     1
 70
    58
 90
        2
176
     1
 90
        2
176
     1
 90
        1
176
     1
 90
        0
176
     1
 40
0.6
176
     1
 40
30.0
176
     1
 62
     7
420
 16777215
176
     1
 90
        1
176
     1
 90
        4
176
     1
 62
     7
176
     1
 62
   257
176
     1
 90
        1
176
     1
 90
        1
176
     1
 40
1.0
176
     1
 90
        8
176
     1
 62
     7
176
     1
 40
1.0
176
     1
 90
        1
176
     1
 90
        6
176
     1
 90
        2
176
     1
 62
     7
176
     1
 90
        5
176
     1
 90
        0
176
     1
 90
        0
176
     1
290
     0
176
     1
 90
        1
176
     1
 40
-50.0
176
     1
 90
        0
176
     1
290
     0
176
     1
290
     1
176
     1
290
     1
176
     1
290
     0
176
     1
290
     0
176
     1
290
     0
176
     1
290
     0
176
     1
290
     0
176
     1
290
     0
176
     1
 90
       50
176
     1
 40
0.0
176
     1
 40
1.0
176
     1
 90
        0
176
     1
 62
    18
176
     1
 90
       50
176
     1
 90
        3
176
     1
 62
     5
420
      255
176
     1
290
     0
176
     1
 90
       50
176
     1
 90
       50
176
     1
 90
       50
176
     1
290
     0
176
     1
 90
       50
176
     1
 62
   256
176
     0
 40
1.0
176
     0
 90
        2
176
     1
  1
strokes_ogs.tif
176
     1
290
     0
176
     1
 40
1.0
176
     1
 40
1.0
176
     1
1001
ACAD
1000
AcDbSavedByObjectVersion
1070
     0
  0
VISUALSTYLE
  5
1E6
102
{ACAD_REACTORS
330
EF
102
}
330
EF
100
AcDbVisualStyle
  2
EdgeColorOff
 70
    22
177
     3
291
     1
 70
    58
 90
        2
176
     0
 90
        2
176
     0
 90
        0
176
     0
 90
        0
176
     0
 40
0.6
176
     0
 40
30.0
176
     0
 62
     7
420
 16777215
176
     0
 90
        1
176
     0
 90
        4
176
     0
 62
     7
176
     0
 62
   257
176
     0
 90
        1
176
     0
 90
        1
176
     0
 40
1.0
176
     0
 90
        8
176
     2
 62
     7
176
     0
 40
1.0
176
     0
 90
        1
176
     0
 90
        6
176
     0
 90
        2
176
     0
 62
     7
176
     0
 90
        5
176
     0
 90
        0
176
     0
 90
        0
176
     0
290
     0
176
     0
 90
        1
176
     0
 40
0.0
176
     0
 90
        0
176
     0
290
     0
176
     1
290
     1
176
     1
290
     1
176
     1
290
     0
176
     1
290
     0
176
     1
290
     0
176
     1
290
     0
176
     1
290
     0
176
     1
290
     0
176
     1
 90
       50
176
     1
 40
0.0
176
     1
 40
1.0
176
     1
 90
        0
176
     1
 62
    18
176
     1
 90
       50
176
     1
 90
        3
176
     1
 62
     5
420
      255
176
     1
290
     0
176
     1
 90
       50
176
     1
 90
       50
176
     1
 90
       50
176
     1
290
     0
176
     1
 90
       50
176
     1
 62
   256
176
     0
 40
1.0
176
     0
 90
        2
176
     1
  1
strokes_ogs.tif
176
     1
290
     0
176
     1
 40
1.0
176
     1
 40
1.0
176
     1
1001
ACAD
1000
AcDbSavedByObjectVersion
1070
     0
  0
VISUALSTYLE
  5
FE
102
{ACAD_REACTORS
330
EF
102
}
330
EF
100
AcDbVisualStyle
  2
Facepattern
 70
    15
177
     3
291
     1
 70
    58
 90
        2
176
     1
 90
        2
176
     1
 90
        1
176
     1
 90
        0
176
     1
 40
0.6
176
     1
 40
30.0
176
     1
 62
     7
420
 16777215
176
     1
 90
        1
176
     1
 90
        4
176
     1
 62
     7
176
     1
 62
   257
176
     1
 90
        1
176
     1
 90
        1
176
     1
 40
1.0
176
     1
 90
        8
176
     1
 62
     7
176
     1
 40
1.0
176
     1
 90
        1
176
     1
 90
        6
176
     1
 90
        2
176
     1
 62
     7
176
     1
 90
        5
176
     1
 90
        0
176
     1
 90
        0
176
     1
290
     0
176
     1
 90
        1
176
     1
 40
0.0
176
     1
 90
        0
176
     1
290
     0
176
     1
290
     1
176
     1
290
     1
176
     1
290
     0
176
     1
290
     0
176
     1
290
     0
176
     1
290
     0
176
     1
290
     0
176
     1
290
     0
176
     1
 90
       50
176
     1
 40
0.0
176
     1
 40
1.0
176
     1
 90
        0
176
     1
 62
    18
176
     1
 90
       50
176
     1
 90
        3
176
     1
 62
     5
420
      255
176
     1
290
     0
176
     1
 90
       50
176
     1
 90
       50
176
     1
 90
       50
176
     1
290
     0
176
     1
 90
       50
176
     1
 62
   256
176
     0
 40
1.0
176
     0
 90
        2
176
     1
  1
strokes_ogs.tif
176
     1
290
     0
176
     1
 40
1.0
176
     1
 40
1.0
176
     1
1001
ACAD
1000
AcDbSavedByObjectVersion
1070
     0
  0
VISUALSTYLE
  5
F0
102
{ACAD_REACTORS
330
EF
102
}
330
EF
100
AcDbVisualStyle
  2
Flat
 70
     0
177
     3
291
     1
 70
    58
 90
        2
176
     1
 90
        1
176
     1
 90
        1
176
     1
 90
        2
176
     1
 40
0.6
176
     1
 40
30.0
176
     1
 62
     7
420
 16777215
176
     1
 90
        0
176
     1
 90
        0
176
     1
 62
     7
176
     1
 62
   257
176
     1
 90
        1
176
     1
 90
        1
176
     1
 40
1.0
176
     1
 90
        8
176
     1
 62
     7
176
     1
 40
1.0
176
     1
 90
        1
176
     1
 90
        6
176
     1
 90
        2
176
     1
 62
     7
176
     1
 90
        5
176
     1
 90
        0
176
     1
 90
        0
176
     1
290
     0
176
     1
 90
       13
176
     1
 40
0.0
176
     1
 90
        0
176
     1
290
     0
176
     1
290
     1
176
     1
290
     1
176
     1
290
     0
176
     1
290
     0
176
     1
290
     0
176
     1
290
     0
176
     1
290
     0
176
     1
290
     0
176
     1
 90
       50
176
     1
 40
0.0
176
     1
 40
1.0
176
     1
 90
        0
176
     1
 62
    18
176
     1
 90
       50
176
     1
 90
        3
176
     1
 62
     5
420
      255
176
     1
290
     0
176
     1
 90
       50
176
     1
 90
       50
176
     1
 90
       50
176
     1
290
     0
176
     1
 90
       50
176
     1
 62
   256
176
     0
 40
1.0
176
     0
 90
        2
176
     1
  1
strokes_ogs.tif
176
     1
290
     0
176
     1
 40
1.0
176
     1
 40
1.0
176
     1
1001
ACAD
1000
AcDbSavedByObjectVersion
1070
     0
  0
VISUALSTYLE
  5
F1
102
{ACAD_REACTORS
330
EF
102
}
330
EF
100
AcDbVisualStyle
  2
FlatWithEdges
 70
     1
177
     3
291
     1
 70
    58
 90
        2
176
     1
 90
        1
176
     1
 90
        1
176
     1
 90
        2
176
     1
 40
0.6
176
     1
 40
30.0
176
     1
 62
     7
420
 16777215
176
     1
 90
        1
176
     1
 90
        0
176
     1
 62
     7
176
     1
 62
   257
176
     1
 90
        1
176
     1
 90
        1
176
     1
 40
1.0
176
     1
 90
        0
176
     1
 62
   257
176
     1
 40
1.0
176
     1
 90
        1
176
     1
 90
        6
176
     1
 90
        2
176
     1
 62
     7
176
     1
 90
        5
176
     1
 90
        0
176
     1
 90
        0
176
     1
290
     0
176
     1
 90
       13
176
     1
 40
0.0
176
     1
 90
        0
176
     1
290
     0
176
     1
290
     1
176
     1
290
     1
176
     1
290
     0
176
     1
290
     0
176
     1
290
     0
176
     1
290
     0
176
     1
290
     0
176
     1
290
     0
176
     1
 90
       50
176
     1
 40
0.0
176
     1
 40
1.0
176
     1
 90
        0
176
     1
 62
    18
176
     1
 90
       50
176
     1
 90
        3
176
     1
 62
     5
420
      255
176
     1
290
     0
176
     1
 90
       50
176
     1
 90
       50
176
     1
 90
       50
176
     1
290
     0
176
     1
 90
       50
176
     1
 62
   256
176
     0
 40
1.0
176
     0
 90
        2
176
     1
  1
strokes_ogs.tif
176
     1
290
     0
176
     1
 40
1.0
176
     1
 40
1.0
176
     1
1001
ACAD
1000
AcDbSavedByObjectVersion
1070
     0
  0
VISUALSTYLE
  5
F2
102
{ACAD_REACTORS
330
EF
102
}
330
EF
100
AcDbVisualStyle
  2
Gouraud
 70
     2
177
     3
291
     1
 70
    58
 90
        2
176
     1
 90
        2
176
     1
 90
        1
176
     1
 90
        2
176
     1
 40
0.6
176
     1
 40
30.0
176
     1
 62
     7
420
 16777215
176
     1
 90
        0
176
     1
 90
        0
176
     1
 62
     7
176
     1
 62
   257
176
     1
 90
        1
176
     1
 90
        1
176
     1
 40
1.0
176
     1
 90
        0
176
     1
 62
     7
176
     1
 40
1.0
176
     1
 90
        1
176
     1
 90
        6
176
     1
 90
        2
176
     1
 62
     7
176
     1
 90
        5
176
     1
 90
        0
176
     1
 90
        0
176
     1
290
     0
176
     1
 90
       13
176
     1
 40
0.0
176
     1
 90
        0
176
     1
290
     0
176
     1
290
     1
176
     1
290
     1
176
     1
290
     0
176
     1
290
     0
176
     1
290
     0
176
     1
290
     0
176
     1
290
     0
176
     1
290
     0
176
     1
 90
       50
176
     1
 40
0.0
176
     1
 40
1.0
176
     1
 90
        0
176
     1
 62
    18
176
     1
 90
       50
176
     1
 90
        3
176
     1
 62
     5
420
      255
176
     1
290
     0
176
     1
 90
       50
176
     1
 90
       50
176
     1
 90
       50
176
     1
290
     0
176
     1
 90
       50
176
     1
 62
   256
176
     0
 40
1.0
176
     0
 90
        2
176
     1
  1
strokes_ogs.tif
176
     1
290
     0
176
     1
 40
1.0
176
     1
 40
1.0
176
     1
1001
ACAD
1000
AcDbSavedByObjectVersion
1070
     0
  0
VISUALSTYLE
  5
F3
102
{ACAD_REACTORS
330
EF
102
}
330
EF
100
AcDbVisualStyle
  2
GouraudWithEdges
 70
     3
177
     3
291
     1
 70
    58
 90
        2
176
     1
 90
        2
176
     1
 90
        1
176
     1
 90
        2
176
     1
 40
0.6
176
     1
 40
30.0
176
     1
 62
     7
420
 16777215
176
     1
 90
        1
176
     1
 90
        0
176
     1
 62
     7
176
     1
 62
   257
176
     1
 90
        1
176
     1
 90
        1
176
     1
 40
1.0
176
     1
 90
        0
176
     1
 62
   257
176
     1
 40
1.0
176
     1
 90
        1
176
     1
 90
        6
176
     1
 90
        2
176
     1
 62
     7
176
     1
 90
        5
176
     1
 90
        0
176
     1
 90
        0
176
     1
290
     0
176
     1
 90
       13
176
     1
 40
0.0
176
     1
 90
        0
176
     1
290
     0
176
     1
290
     1
176
     1
290
     1
176
     1
290
     0
176
     1
290
     0
176
     1
290
     0
176
     1
290
     0
176
     1
290
     0
176
     1
290
     0
176
     1
 90
       50
176
     1
 40
0.0
176
     1
 40
1.0
176
     1
 90
        0
176
     1
 62
    18
176
     1
 90
       50
176
     1
 90
        3
176
     1
 62
     5
420
      255
176
     1
290
     0
176
     1
 90
       50
176
     1
 90
       50
176
     1
 90
       50
176
     1
290
     0
176
     1
 90
       50
176
     1
 62
   256
176
     0
 40
1.0
176
     0
 90
        2
176
     1
  1
strokes_ogs.tif
176
     1
290
     0
176
     1
 40
1.0
176
     1
 40
1.0
176
     1
1001
ACAD
1000
AcDbSavedByObjectVersion
1070
     0
  0
VISUALSTYLE
  5
F7
102
{ACAD_REACTORS
330
EF
102
}
330
EF
100
AcDbVisualStyle
  2
Hidden
 70
     6
177
     3
291
     0
 70
    58
 90
        1
176
     1
 90
        2
176
     1
 90
        2
176
     1
 90
        0
176
     1
 40
0.6
176
     1
 40
30.0
176
     1
 62
     7
420
 16777215
176
     1
 90
        2
176
     1
 90
        2
176
     1
 62
     7
176
     1
 62
   257
176
     1
 90
        2
176
     1
 90
        1
176
     1
 40
40.0
176
     1
 90
        0
176
     1
 62
   257
176
     1
 40
1.0
176
     1
 90
        1
176
     1
 90
        6
176
     1
 90
        2
176
     1
 62
     7
176
     1
 90
        3
176
     1
 90
        0
176
     1
 90
        0
176
     1
290
     0
176
     1
 90
        1
176
     1
 40
0.0
176
     1
 90
        0
176
     1
290
     0
176
     1
290
     1
176
     1
290
     1
176
     1
290
     0
176
     1
290
     0
176
     1
290
     0
176
     1
290
     0
176
     1
290
     0
176
     1
290
     0
176
     1
 90
       50
176
     1
 40
0.0
176
     1
 40
1.0
176
     1
 90
        0
176
     1
 62
    18
176
     1
 90
       50
176
     1
 90
        3
176
     1
 62
     5
420
      255
176
     1
290
     0
176
     1
 90
       50
176
     1
 90
       50
176
     1
 90
       50
176
     1
290
     0
176
     1
 90
       50
176
     1
 62
   256
176
     0
 40
1.0
176
     0
 90
        2
176
     1
  1
strokes_ogs.tif
176
     1
290
     0
176
     1
 40
1.0
176
     1
 40
1.0
176
     1
1001
ACAD
1000
AcDbSavedByObjectVersion
1070
     0
  0
VISUALSTYLE
  5
1E4
102
{ACAD_REACTORS
330
EF
102
}
330
EF
100
AcDbVisualStyle
  2
JitterOff
 70
    20
177
     3
291
     1
 70
    58
 90
        2
176
     0
 90
        2
176
     0
 90
        0
176
     0
 90
        0
176
     0
 40
0.6
176
     0
 40
30.0
176
     0
 62
     7
420
 16777215
176
     0
 90
        1
176
     0
 90
        4
176
     0
 62
     7
176
     0
 62
   257
176
     0
 90
        1
176
     0
 90
        1
176
     0
 40
1.0
176
     0
 90
       10
176
     2
 62
     7
176
     0
 40
1.0
176
     0
 90
        1
176
     0
 90
        6
176
     0
 90
        2
176
     0
 62
     7
176
     0
 90
        5
176
     0
 90
        0
176
     0
 90
        0
176
     0
290
     0
176
     0
 90
        1
176
     0
 40
0.0
176
     0
 90
        0
176
     0
290
     0
176
     1
290
     1
176
     1
290
     1
176
     1
290
     0
176
     1
290
     0
176
     1
290
     0
176
     1
290
     0
176
     1
290
     0
176
     1
290
     0
176
     1
 90
       50
176
     1
 40
0.0
176
     1
 40
1.0
176
     1
 90
        0
176
     1
 62
    18
176
     1
 90
       50
176
     1
 90
        3
176
     1
 62
     5
420
      255
176
     1
290
     0
176
     1
 90
       50
176
     1
 90
       50
176
     1
 90
       50
176
     1
290
     0
176
     1
 90
       50
176
     1
 62
   256
176
     0
 40
1.0
176
     0
 90
        2
176
     1
  1
strokes_ogs.tif
176
     1
290
     0
176
     1
 40
1.0
176
     1
 40
1.0
176
     1
1001
ACAD
1000
AcDbSavedByObjectVersion
1070
     0
  0
VISUALSTYLE
  5
FD
102
{ACAD_REACTORS
330
EF
102
}
330
EF
100
AcDbVisualStyle
  2
Linepattern
 70
    14
177
     3
291
     1
 70
    58
 90
        2
176
     1
 90
        2
176
     1
 90
        1
176
     1
 90
        0
176
     1
 40
0.6
176
     1
 40
30.0
176
     1
 62
     7
420
 16777215
176
     1
 90
        1
176
     1
 90
        4
176
     1
 62
     7
176
     1
 62
   257
176
     1
 90
        7
176
     1
 90
        7
176
     1
 40
1.0
176
     1
 90
        8
176
     1
 62
     7
176
     1
 40
1.0
176
     1
 90
        1
176
     1
 90
        6
176
     1
 90
        2
176
     1
 62
     7
176
     1
 90
        5
176
     1
 90
        0
176
     1
 90
        0
176
     1
290
     0
176
     1
 90
        1
176
     1
 40
0.0
176
     1
 90
        0
176
     1
290
     0
176
     1
290
     1
176
     1
290
     1
176
     1
290
     0
176
     1
290
     0
176
     1
290
     0
176
     1
290
     0
176
     1
290
     0
176
     1
290
     0
176
     1
 90
       50
176
     1
 40
0.0
176
     1
 40
1.0
176
     1
 90
        0
176
     1
 62
    18
176
     1
 90
       50
176
     1
 90
        3
176
     1
 62
     5
420
      255
176
     1
290
     0
176
     1
 90
       50
176
     1
 90
       50
176
     1
 90
       50
176
     1
290
     0
176
     1
 90
       50
176
     1
 62
   256
176
     0
 40
1.0
176
     0
 90
        2
176
     1
  1
strokes_ogs.tif
176
     1
290
     0
176
     1
 40
1.0
176
     1
 40
1.0
176
     1
1001
ACAD
1000
AcDbSavedByObjectVersion
1070
     0
  0
VISUALSTYLE
  5
1E5
102
{ACAD_REACTORS
330
EF
102
}
330
EF
100
AcDbVisualStyle
  2
OverhangOff
 70
    21
177
     3
291
     1
 70
    58
 90
        2
176
     0
 90
        2
176
     0
 90
        0
176
     0
 90
        0
176
     0
 40
0.6
176
     0
 40
30.0
176
     0
 62
     7
420
 16777215
176
     0
 90
        1
176
     0
 90
        4
176
     0
 62
     7
176
     0
 62
   257
176
     0
 90
        1
176
     0
 90
        1
176
     0
 40
1.0
176
     0
 90
        9
176
     2
 62
     7
176
     0
 40
1.0
176
     0
 90
        1
176
     0
 90
        6
176
     0
 90
        2
176
     0
 62
     7
176
     0
 90
        5
176
     0
 90
        0
176
     0
 90
        0
176
     0
290
     0
176
     0
 90
        1
176
     0
 40
0.0
176
     0
 90
        0
176
     0
290
     0
176
     1
290
     1
176
     1
290
     1
176
     1
290
     0
176
     1
290
     0
176
     1
290
     0
176
     1
290
     0
176
     1
290
     0
176
     1
290
     0
176
     1
 90
       50
176
     1
 40
0.0
176
     1
 40
1.0
176
     1
 90
        0
176
     1
 62
    18
176
     1
 90
       50
176
     1
 90
        3
176
     1
 62
     5
420
      255
176
     1
290
     0
176
     1
 90
       50
176
     1
 90
       50
176
     1
 90
       50
176
     1
290
     0
176
     1
 90
       50
176
     1
 62
   256
176
     0
 40
1.0
176
     0
 90
        2
176
     1
  1
strokes_ogs.tif
176
     1
290
     0
176
     1
 40
1.0
176
     1
 40
1.0
176
     1
1001
ACAD
1000
AcDbSavedByObjectVersion
1070
     0
  0
VISUALSTYLE
  5
F9
102
{ACAD_REACTORS
330
EF
102
}
330
EF
100
AcDbVisualStyle
  2
Realistic
 70
     8
177
     3
291
     0
 70
    58
 90
        2
176
     1
 90
        3
176
     1
 90
        0
176
     1
 90
        2
176
     1
 40
0.6
176
     1
 40
30.0
176
     1
 62
     7
420
 16777215
176
     1
 90
        0
176
     1
 90
        0
176
     1
 62
     7
176
     1
 62
   257
176
     1
 90
        1
176
     1
 90
        1
176
     1
 40
1.0
176
     1
 90
        8
176
     1
 62
   257
176
     1
 40
1.0
176
     1
 90
        1
176
     1
 90
        6
176
     1
 90
        2
176
     1
 62
     7
176
     1
 90
        3
176
     1
 90
        0
176
     1
 90
        0
176
     1
290
     0
176
     1
 90
       13
176
     1
 40
0.0
176
     1
 90
        0
176
     1
290
     0
176
     1
290
     1
176
     1
290
     1
176
     1
290
     0
176
     1
290
     0
176
     1
290
     0
176
     1
290
     0
176
     1
290
     0
176
     1
290
     0
176
     1
 90
       50
176
     1
 40
0.0
176
     1
 40
1.0
176
     1
 90
        0
176
     1
 62
    18
176
     1
 90
       50
176
     1
 90
        3
176
     1
 62
     5
420
      255
176
     1
290
     0
176
     1
 90
       50
176
     1
 90
       50
176
     1
 90
       50
176
     1
290
     0
176
     1
 90
       50
176
     1
 62
   256
176
     0
 40
1.0
176
     0
 90
        2
176
     1
  1
strokes_ogs.tif
176
     1
290
     0
176
     1
 40
1.0
176
     1
 40
1.0
176
     1
1001
ACAD
1000
AcDbSavedByObjectVersion
1070
     0
  0
VISUALSTYLE
  5
1F3
102
{ACAD_REACTORS
330
EF
102
}
330
EF
100
AcDbVisualStyle
  2
Shaded
 70
    27
177
     3
291
     0
 70
    58
 90
        2
176
     1
 90
        2
176
     1
 90
        1
176
     1
 90
        2
176
     1
 40
0.6
176
     1
 40
30.0
176
     1
 62
     7
420
 16777215
176
     1
 90
        0
176
     1
 90
        4
176
     1
 62
     7
176
     1
 62
   257
176
     1
 90
        1
176
     1
 90
        1
176
     1
 40
1.0
176
     1
 90
        8
176
     1
 62
   257
176
     1
 40
1.0
176
     1
 90
        1
176
     1
 90
        6
176
     1
 90
        2
176
     1
 62
     8
420
  7895160
176
     1
 90
        3
176
     1
 90
        0
176
     1
 90
        0
176
     1
290
     0
176
     1
 90
        5
176
     1
 40
0.0
176
     1
 90
        0
176
     1
290
     0
176
     1
290
     1
176
     1
290
     1
176
     1
290
     0
176
     1
290
     0
176
     1
290
     0
176
     1
290
     0
176
     1
290
     0
176
     1
290
     0
176
     1
 90
       50
176
     1
 40
0.0
176
     1
 40
1.0
176
     1
 90
        0
176
     1
 62
    18
176
     1
 90
       50
176
     1
 90
        3
176
     1
 62
     5
420
      255
176
     1
290
     0
176
     1
 90
       50
176
     1
 90
       50
176
     1
 90
       50
176
     1
290
     0
176
     1
 90
       50
176
     1
 62
   256
176
     0
 40
1.0
176
     0
 90
        2
176
     1
  1
strokes_ogs.tif
176
     1
290
     0
176
     1
 40
1.0
176
     1
 40
1.0
176
     1
1001
ACAD
1000
AcDbSavedByObjectVersion
1070
     0
  0
VISUALSTYLE
  5
1F2
102
{ACAD_REACTORS
330
EF
102
}
330
EF
100
AcDbVisualStyle
  2
Shaded with edges
 70
    26
177
     3
291
     0
 70
    58
 90
        2
176
     1
 90
        2
176
     1
 90
        1
176
     1
 90
        2
176
     1
 40
0.6
176
     1
 40
30.0
176
     1
 62
     7
420
 16777215
176
     1
 90
        1
176
     1
 90
        2
176
     1
 62
     7
176
     1
 62
   257
176
     1
 90
        2
176
     1
 90
        1
176
     1
 40
1.0
176
     1
 90
        8
176
     1
 62
   257
176
     1
 40
1.0
176
     1
 90
        1
176
     1
 90
        6
176
     1
 90
        2
176
     1
 62
     7
176
     1
 90
        3
176
     1
 90
        0
176
     1
 90
        0
176
     1
290
     0
176
     1
 90
        5
176
     1
 40
0.0
176
     1
 90
        0
176
     1
290
     0
176
     1
290
     1
176
     1
290
     1
176
     1
290
     0
176
     1
290
     0
176
     1
290
     0
176
     1
290
     0
176
     1
290
     0
176
     1
290
     0
176
     1
 90
       50
176
     1
 40
0.0
176
     1
 40
1.0
176
     1
 90
        0
176
     1
 62
    18
176
     1
 90
       50
176
     1
 90
        3
176
     1
 62
     5
420
      255
176
     1
290
     0
176
     1
 90
       50
176
     1
 90
       50
176
     1
 90
       50
176
     1
290
     0
176
     1
 90
       50
176
     1
 62
   256
176
     0
 40
1.0
176
     0
 90
        2
176
     1
  1
strokes_ogs.tif
176
     1
290
     0
176
     1
 40
1.0
176
     1
 40
1.0
176
     1
1001
ACAD
1000
AcDbSavedByObjectVersion
1070
     0
  0
VISUALSTYLE
  5
1EF
102
{ACAD_REACTORS
330
EF
102
}
330
EF
100
AcDbVisualStyle
  2
Shades of Gray
 70
    23
177
     3
291
     0
 70
    58
 90
        2
176
     1
 90
        2
176
     1
 90
        3
176
     1
 90
        0
176
     1
 40
0.6
176
     1
 40
30.0
176
     1
 62
     7
420
 16777215
176
     1
 90
        2
176
     1
 90
        2
176
     1
 62
     7
176
     1
 62
     7
176
     1
 90
        1
176
     1
 90
        1
176
     1
 40
40.0
176
     1
 90
        8
176
     1
 62
     7
176
     1
 40
1.0
176
     1
 90
        1
176
     1
 90
        6
176
     1
 90
        2
176
     1
 62
     7
176
     1
 90
        3
176
     1
 90
        0
176
     1
 90
        0
176
     1
290
     0
176
     1
 90
        1
176
     1
 40
0.0
176
     1
 90
        0
176
     1
290
     0
176
     1
290
     1
176
     1
290
     1
176
     1
290
     0
176
     1
290
     0
176
     1
290
     0
176
     1
290
     0
176
     1
290
     0
176
     1
290
     0
176
     1
 90
       50
176
     1
 40
0.0
176
     1
 40
1.0
176
     1
 90
        0
176
     1
 62
    18
176
     1
 90
       50
176
     1
 90
        3
176
     1
 62
     5
420
      255
176
     1
290
     0
176
     1
 90
       50
176
     1
 90
       50
176
     1
 90
       50
176
     1
290
     0
176
     1
 90
       50
176
     1
 62
   256
176
     0
 40
1.0
176
     0
 90
        2
176
     1
  1
strokes_ogs.tif
176
     1
290
     0
176
     1
 40
1.0
176
     1
 40
1.0
176
     1
1001
ACAD
1000
AcDbSavedByObjectVersion
1070
     0
  0
VISUALSTYLE
  5
1F0
102
{ACAD_REACTORS
330
EF
102
}
330
EF
100
AcDbVisualStyle
  2
Sketchy
 70
    24
177
     3
291
     0
 70
    58
 90
        1
176
     1
 90
        2
176
     1
 90
        2
176
     1
 90
        0
176
     1
 40
0.6
176
     1
 40
30.0
176
     1
 62
     7
420
 16777215
176
     1
 90
        2
176
     1
 90
        2
176
     1
 62
     7
176
     1
 62
     7
176
     1
 90
        1
176
     1
 90
        1
176
     1
 40
40.0
176
     1
 90
       11
176
     1
 62
     7
176
     1
 40
1.0
176
     1
 90
        1
176
     1
 90
        6
176
     1
 90
        2
176
     1
 62
     7
176
     1
 90
        6
176
     1
 90
        0
176
     1
 90
        0
176
     1
290
     0
176
     1
 90
        1
176
     1
 40
0.0
176
     1
 90
        0
176
     1
290
     0
176
     1
290
     1
176
     1
290
     1
176
     1
290
     0
176
     1
290
     0
176
     1
290
     0
176
     1
290
     0
176
     1
290
     0
176
     1
290
     0
176
     1
 90
       50
176
     1
 40
0.0
176
     1
 40
1.0
176
     1
 90
        0
176
     1
 62
    18
176
     1
 90
       50
176
     1
 90
        3
176
     1
 62
     5
420
      255
176
     1
290
     0
176
     1
 90
       50
176
     1
 90
       50
176
     1
 90
       50
176
     1
290
     0
176
     1
 90
       50
176
     1
 62
   256
176
     0
 40
1.0
176
     0
 90
        2
176
     1
  1
strokes_ogs.tif
176
     1
290
     0
176
     1
 40
1.0
176
     1
 40
1.0
176
     1
1001
ACAD
1000
AcDbSavedByObjectVersion
1070
     0
  0
VISUALSTYLE
  5
FC
102
{ACAD_REACTORS
330
EF
102
}
330
EF
100
AcDbVisualStyle
  2
Thicken
 70
    13
177
     3
291
     1
 70
    58
 90
        2
176
     1
 90
        2
176
     1
 90
        1
176
     1
 90
        0
176
     1
 40
0.6
176
     1
 40
30.0
176
     1
 62
     7
420
 16777215
176
     1
 90
        1
176
     1
 90
        4
176
     1
 62
     7
176
     1
 62
   257
176
     1
 90
        1
176
     1
 90
        1
176
     1
 40
1.0
176
     1
 90
       12
176
     1
 62
     7
176
     1
 40
1.0
176
     1
 90
        1
176
     1
 90
        6
176
     1
 90
        2
176
     1
 62
     7
176
     1
 90
        5
176
     1
 90
        0
176
     1
 90
        0
176
     1
290
     0
176
     1
 90
        1
176
     1
 40
0.0
176
     1
 90
        0
176
     1
290
     0
176
     1
290
     1
176
     1
290
     1
176
     1
290
     0
176
     1
290
     0
176
     1
290
     0
176
     1
290
     0
176
     1
290
     0
176
     1
290
     0
176
     1
 90
       50
176
     1
 40
0.0
176
     1
 40
1.0
176
     1
 90
        0
176
     1
 62
    18
176
     1
 90
       50
176
     1
 90
        3
176
     1
 62
     5
420
      255
176
     1
290
     0
176
     1
 90
       50
176
     1
 90
       50
176
     1
 90
       50
176
     1
290
     0
176
     1
 90
       50
176
     1
 62
   256
176
     0
 40
1.0
176
     0
 90
        2
176
     1
  1
strokes_ogs.tif
176
     1
290
     0
176
     1
 40
1.0
176
     1
 40
1.0
176
     1
1001
ACAD
1000
AcDbSavedByObjectVersion
1070
     0
  0
VISUALSTYLE
  5
F6
102
{ACAD_REACTORS
330
EF
102
}
330
EF
100
AcDbVisualStyle
  2
Wireframe
 70
     5
177
     3
291
     0
 70
    58
 90
        0
176
     1
 90
        2
176
     1
 90
        0
176
     1
 90
        0
176
     1
 40
0.6
176
     1
 40
30.0
176
     1
 62
     7
420
 16777215
176
     1
 90
        1
176
     1
 90
        4
176
     1
 62
     7
176
     1
 62
   257
176
     1
 90
        1
176
     1
 90
        1
176
     1
 40
1.0
176
     1
 90
        0
176
     1
 62
   257
176
     1
 40
1.0
176
     1
 90
        1
176
     1
 90
        6
176
     1
 90
        2
176
     1
 62
     7
176
     1
 90
        3
176
     1
 90
        0
176
     1
 90
        0
176
     1
290
     0
176
     1
 90
        1
176
     1
 40
0.0
176
     1
 90
        0
176
     1
290
     0
176
     1
290
     1
176
     1
290
     1
176
     1
290
     0
176
     1
290
     0
176
     1
290
     0
176
     1
290
     0
176
     1
290
     0
176
     1
290
     0
176
     1
 90
       50
176
     1
 40
0.0
176
     1
 40
1.0
176
     1
 90
        0
176
     1
 62
    18
176
     1
 90
       50
176
     1
 90
        3
176
     1
 62
     5
420
      255
176
     1
290
     0
176
     1
 90
       50
176
     1
 90
       50
176
     1
 90
       50
176
     1
290
     0
176
     1
 90
       50
176
     1
 62
   256
176
     0
 40
1.0
176
     0
 90
        2
176
     1
  1
strokes_ogs.tif
176
     1
290
     0
176
     1
 40
1.0
176
     1
 40
1.0
176
     1
1001
ACAD
1000
AcDbSavedByObjectVersion
1070
     0
  0
VISUALSTYLE
  5
1F1
102
{ACAD_REACTORS
330
EF
102
}
330
EF
100
AcDbVisualStyle
  2
X-Ray
 70
    25
177
     3
291
     0
 70
    58
 90
        2
176
     1
 90
        2
176
     1
 90
        1
176
     1
 90
        1
176
     1
 40
0.5
176
     1
 40
30.0
176
     1
 62
     7
420
 16777215
176
     1
 90
        1
176
     1
 90
        0
176
     1
 62
     7
176
     1
 62
   257
176
     1
 90
        1
176
     1
 90
        1
176
     1
 40
1.0
176
     1
 90
        8
176
     1
 62
     7
176
     1
 40
1.0
176
     1
 90
        1
176
     1
 90
        6
176
     1
 90
        2
176
     1
 62
     7
176
     1
 90
        3
176
     1
 90
        0
176
     1
 90
        0
176
     1
290
     0
176
     1
 90
       13
176
     1
 40
0.0
176
     1
 90
        0
176
     1
290
     0
176
     1
290
     1
176
     1
290
     1
176
     1
290
     0
176
     1
290
     0
176
     1
290
     0
176
     1
290
     0
176
     1
290
     0
176
     1
290
     0
176
     1
 90
       50
176
     1
 40
0.0
176
     1
 40
1.0
176
     1
 90
        0
176
     1
 62
    18
176
     1
 90
       50
176
     1
 90
        3
176
     1
 62
     5
420
      255
176
     1
290
     0
176
     1
 90
       50
176
     1
 90
       50
176
     1
 90
       50
176
     1
290
     0
176
     1
 90
       50
176
     1
 62
   256
176
     0
 40
1.0
176
     0
 90
        2
176
     1
  1
strokes_ogs.tif
176
     1
290
     0
176
     1
 40
1.0
176
     1
 40
1.0
176
     1
1001
ACAD
1000
AcDbSavedByObjectVersion
1070
     0
  0
DICTIONARYVAR
  5
146
102
{ACAD_REACTORS
330
5E
102
}
330
5E
100
DictionaryVariables
280
     0
  1
1:1
  0
DICTIONARYVAR
  5
259
102
{ACAD_REACTORS
330
5E
102
}
330
5E
100
DictionaryVariables
280
     0
  1
3.500000
  0
DICTIONARYVAR
  5
25A
102
{ACAD_REACTORS
330
5E
102
}
330
5E
100
DictionaryVariables
280
     0
  1
acadiso.lin
  0
DICTIONARYVAR
  5
145
102
{ACAD_REACTORS
330
5E
102
}
330
5E
100
DictionaryVariables
280
     0
  1
STANDARD
  0
DICTIONARYVAR
  5
84
102
{ACAD_REACTORS
330
5E
102
}
330
5E
100
DictionaryVariables
280
     0
  1
STANDARD
  0
DICTIONARYVAR
  5
227
102
{ACAD_REACTORS
330
5E
102
}
330
5E
100
DictionaryVariables
280
     0
  1
Metric50
  0
DICTIONARYVAR
  5
228
102
{ACAD_REACTORS
330
5E
102
}
330
5E
100
DictionaryVariables
280
     0
  1
Metric50
  0
DICTIONARYVAR
  5
5F
102
{ACAD_REACTORS
330
5E
102
}
330
5E
100
DictionaryVariables
280
     0
  1
2
  0
DICTIONARYVAR
  5
63
102
{ACAD_REACTORS
330
5E
102
}
330
5E
100
DictionaryVariables
280
     0
  1
1
  0
DICTIONARYVAR
  5
515
102
{ACAD_REACTORS
330
5E
102
}
330
5E
100
DictionaryVariables
280
     0
  1
BYLAYER
  0
DICTIONARYVAR
  5
514
102
{ACAD_REACTORS
330
5E
102
}
330
5E
100
DictionaryVariables
280
     0
  1
ByLayer
  0
DICTIONARYVAR
  5
1AE
102
{ACAD_REACTORS
330
5E
102
}
330
5E
100
DictionaryVariables
280
     0
  1
0
  0
DICTIONARYVAR
  5
1AF
102
{ACAD_REACTORS
330
5E
102
}
330
5E
100
DictionaryVariables
280
     0
  1
0
  0
DICTIONARY
  5
ED5
102
{ACAD_REACTORS
330
ED3
102
}
330
ED3
100
AcDbDictionary
281
     1
  0
DICTIONARY
  5
ED4
102
{ACAD_REACTORS
330
ED3
102
}
330
ED3
100
AcDbDictionary
281
     1
  3
2949928664800
350
ECE
  3
2949928664816
350
ECF
  3
2949928664832
350
ED0
  3
2949928664848
350
ED1
  3
2949928664864
350
ED2
  0
ACDBASSOCNETWORK
  5
DD8
102
{ACAD_REACTORS
330
DD7
102
}
330
DD7
100
AcDbAssocAction
 90
        2
 90
        0
330
DDA
360
0
 90
        1
 90
        0
 90
        0
 90
        0
 90
        0
 90
        0
 90
        0
100
AcDbAssocNetwork
 90
        0
 90
        1
 90
        1
360
DDB
 90
        0
  0
DICTIONARY
  5
ED8
330
21C
100
AcDbDictionary
280
     1
281
     1
  3
ACAD_XREC_ROUNDTRIP
360
ED9
  0
DICTIONARY
  5
205
330
22
100
AcDbDictionary
280
     1
281
     1
  3
AcPublish_PlotSettingsOverride
360
8AD
  0
DICTIONARY
  5
1F9
330
ED
100
AcDbDictionary
280
     1
281
     1
  3
FBXASSET
360
1FA
  0
DICTIONARY
  5
1F7
330
EC
100
AcDbDictionary
280
     1
281
     1
  3
FBXASSET
360
1F8
  0
DICTIONARY
  5
173
330
EE
100
AcDbDictionary
280
     1
281
     1
  3
BUMPTILE
360
175
  3
DIFFUSETILE
360
174
  3
FBXASSET
360
1FB
  3
OPACITYTILE
360
176
  3
REFLECTIONTILE
360
177
  0
DICTIONARY
  5
ED6
330
21A
100
AcDbDictionary
280
     1
281
     1
  3
ACAD_XREC_ROUNDTRIP
360
ED7
  0
DICTIONARY
  5
162
330
7F
100
AcDbDictionary
280
     1
281
     1
  3
ACAD_ROUNDTRIP_2008_TABLESTYLE_CELLSTYLEMAP
360
ECC
  0
XRECORD
  5
ECE
102
{ACAD_REACTORS
330
ED4
102
}
330
ED4
100
AcDbXrecord
280
     1
  1
AcDb_Thumbnail_Schema
102
{ATTRRECORD
341
ECF
  2
AcDbDs::TreatedAsObjectData
280
     1
291
     1
102
ATTRRECORD}
102
{ATTRRECORD
341
ED0
  2
AcDbDs::Legacy
280
     1
291
     1
102
ATTRRECORD}
  2
AcDbDs::ID
280
    10
 91
        8
102
{ATTRRECORD
341
ED1
  2
AcDs:Indexable
280
     1
291
     1
102
ATTRRECORD}
102
{ATTRRECORD
341
ED2
  2
AcDbDs::HandleAttribute
280
     7
282
     1
102
ATTRRECORD}
  2
Thumbnail_Data
280
    15
 91
        0
  0
XRECORD
  5
ECF
102
{ACAD_REACTORS
330
ED4
102
}
330
ED4
100
AcDbXrecord
280
     1
  1
AcDbDs::TreatedAsObjectDataSchema
  2
AcDbDs::TreatedAsObjectData
280
     1
 91
        0
  0
XRECORD
  5
ED0
102
{ACAD_REACTORS
330
ED4
102
}
330
ED4
100
AcDbXrecord
280
     1
  1
AcDbDs::LegacySchema
  2
AcDbDs::Legacy
280
     1
 91
        0
  0
XRECORD
  5
ED1
102
{ACAD_REACTORS
330
ED4
102
}
330
ED4
100
AcDbXrecord
280
     1
  1
AcDbDs::IndexedPropertySchema
  2
AcDs:Indexable
280
     1
 91
        0
  0
XRECORD
  5
ED2
102
{ACAD_REACTORS
330
ED4
102
}
330
ED4
100
AcDbXrecord
280
     1
  1
AcDbDs::HandleAttributeSchema
  2
AcDbDs::HandleAttribute
280
     7
 91
        1
284
     1
  0
ACDBASSOCACTION
  5
DDB
330
DD8
100
AcDbAssocAction
 90
        2
 90
        0
330
DD8
360
DDC
 90
        1
 90
        3
 90
        1
360
DE6
 90
        0
 90
        2
360
DDD
360
DDF
 90
        0
 90
       14
 90
        0
  1
StartExtLength
 90
        0
 90
        1
 40
41.16423100000008
330
0
330
0
 90
        0
  1
EndExtLength
 90
        0
 90
        1
 40
3.835769999999968
330
0
330
0
 90
        0
  1
StartOvershoot
 90
        0
 90
        1
 40
4.969935934388871
330
0
330
0
 90
        0
  1
EndOvershoot
 90
        0
 90
        1
 40
4.999998999999887
330
0
330
0
 90
        0
  1
EdgeRefDirectionEnding
 90
        0
 90
        2
 90
        1
330
0
 90
        1
330
0
330
0
 90
        0
  1
CenterDepId
 90
        0
 90
        1
330
DE6
330
0
330
0
 90
        0
  1
CachedCenterLineLength
 90
        0
 90
        1
 40
1.5
330
0
330
0
 90
        0
  1
CachedCenterLineDirectionX
 90
        0
 90
        1
 40
0.0
330
0
330
0
 90
        0
  1
CachedCenterLineDirectionY
 90
        0
 90
        1
 40
1.0
330
0
330
0
 90
        0
  1
CachedCenterLineDirectionZ
 90
        0
 90
        1
 40
0.0
330
0
330
0
 90
        0
  1
SubentLineType
 90
        0
 90
        1
  1
CENTER2
330
0
330
0
 90
        0
  1
SubentLineWeight
 90
        0
 90
        1
 40
-1.0
330
0
330
0
 90
        0
  1
SubentLinetypeScale
 90
        0
 90
        1
 40
0.4
330
0
330
0
 90
        0
  1
CachedAssociateStatus
 90
        0
 90
        1
 40
0.0
330
0
330
0
  0
XRECORD
  5
ED9
102
{ACAD_REACTORS
330
ED8
102
}
330
ED8
100
AcDbXrecord
280
     1
102
DISPLAYNAME
  1
Metric50
102
FLAGS
 90
        0
  0
PLOTSETTINGS
  5
8AD
102
{ACAD_REACTORS
330
205
102
}
330
205
100
AcDbPlotSettings
  1

  2
none_device
  4
ISO_A4_(210.00_x_297.00_MM)
  6

 40
7.5
 41
20.0
 42
7.5
 43
20.0
 44
210.0
 45
297.0
 46
11.54999923706054
 47
-13.65000009536743
 48
0.0
 49
0.0
140
0.0
141
0.0
142
1.0
143
2.010971645066389
 70
 11952
 72
     1
 73
     0
 74
     0
  7

 75
     0
147
0.4972720537623426
 76
     0
 77
     2
 78
   300
148
47.73284971420298
149
21.26401829615293
1001
ACAD_PSEXT
1000
None
1000
None
1000
Not applicable
1000
The layout will not be plotted unless a new plotter configuration name is selected.
1070
     0
  0
XRECORD
  5
1FA
102
{ACAD_REACTORS
330
1F9
102
}
330
1F9
100
AcDbXrecord
280
     1
 70
     1
 90
429727718
  1
D62C5603-E3A1-4AEA-B7FB-FE5D8D0755AF
310
504B03040A0000080000CC70623B3DEE336E79000000790000001B0000006175746F6465736B2D64657369676E2D7061636B6167652E786D6C3C3F786D6C2076657273696F6E3D22312E302220656E636F64696E673D227574662D3822203F3E3C666F726D6174733E3C666F726D61743E687474703A2F2F736368656D612E
310
6175746F6465736B2E636F6D2F64657369676E2D7061636B6167652F323030393C2F666F726D61743E3C2F666F726D6174733E504B0304140006080800CC70623BD486FD9CA0000000F4000000130000005B436F6E74656E745F54797065735D2E786D6C7D8EC10E82300C865F65E91D8A1E8C310C0EEA1BF002731658846E
310
D98AC1B77784ABF1D8FE5FBFBF75BBCE937A534CCEB38643598122B6FEE978D0B0485F9C41B54DDD7D022595594E1A469170414C76A4D9A4D207E29CF43ECE46F218070CC6BECC4078ACAA135ACF422C856C0E68EA1BF5669944DDD7BCDE7B1F8E415D77AECB980613C2E4AC91FC167A2B244592486606FC29C8FD7F045B9A
310
EF7053A7E60B504B0304140006080800CC70623B853B8169EB0000007C01000008000000636F72652E786D6C8D90416EC3201045AF62CDB6C206821CC7C244919D9CA01740401C94182C03558F5F9C3852BBEB6A467FFE9B197D7EFC9E1EC5975982F5AE035262288C535E5B377690E21535501C055FBC8FBF6C503839990E
310
5619041F179FE64D52DE45E362569DD7661365082642A11EB9E920A89B99642953CC8E702F67A9EE7234257977194EC9EAE275C4EABCCF5EAD5940D4AC6F0E35A568B8F43562CD7046CD199FD07E60174276A7BE677B5EADB0E0D14EEFFB6A31321A0D82627C4084204C3F096B71DD52F6819B16635EADF63F509AF53FA164
310
5DDCD1EDDD17164090FCC8732078B56691CB33A85CD7DCC40F504B0304140006080800CC70623B55019EA25F0000007C00000007000000636E782E786D6C4DCB3B0E80201045D1AD90E915ED2CF8AC45050C11660C8261F98AB1B07AC9C97D42D718D865D3E909258CFD00CCE24AC6E326A164D74DC0B4128928FF32603847
310
2BA13128B1252AC747C6BAB984FC68F0B87FE8960A5C09FE86CFB69FBA01504B0304140006080800CC70623BDBABAAF470010000D40300000C0000006662782F636F72652E786D6CC553D16E823014FD95A6AF4B694182CC941A83FA05FB810A9511A125A5257EFE2E82712ECEB8A7F100CD39F7F69E734AF9FADC366850B6
310
AF8DCE7018308C942E4C59EB2AC3DE1D498AD15A706B8CFB56869196ADCAF00863C12B6B7C374385D14E6907A836A59A41D9F7CA615434B0C8705F7CAA5606D23BA8E84F41278B93AC54100640439DE0BDB320004D43C63716C7C399D30917DCFBBA9CD9BA8469F5B156168B24CED3F7248AC8769F27244EB73B92EED8862C
310
B7F13E0C179B3C8F979C8ECD82BBBABDAA2BAC924E9558448CBD9330242CFA08E3154B5651FCC6D215639C8EE5774DBE2B5F6CF2B5768B68963BB5F5588420E442FC700B1139D4CB01F450C1E918227C2E09DF070D8140C84E1E9AAB8F1340832A9CB13130A5F1376A908D57309505ECF2A0DF179C4E9D30F5B239B87E3823
310
7A79C6F31DE1A8A5AEC08474B03C7837EAE4938639B44E5932B833D2C6B6B279CDC613877FA26EE21F4A2A4C63EC7F29A2F301D1F9F7A0E37D145F504B0304140006080800CC70623B9C113CC27E0000009D0000000B0000006662782F636E782E786D6C4DCCDF0A83201C86E15B91DFB94BFB330DD428C8FB886521330DA7
310
6397BF1A1DECE883878F57749FCDA1B7892F1BBC047A23808C7F84D9FA55424E0BE6803A256208E9EF06C84F9B91703228B1C690F78B66B34CD9A5439DF5CF0BFBF65E35BCA1B8D6A5C6F540381E886698B5741C695F9503EBA150A2F8958E3DC3EA0B504B0304140006080800CC70623B7DF2F77C2A010000120200003100
310
00006662782F41393633353835312D344632462D344230382D423046372D3739314545314133324237412F636F72652E786D6C8D51DB8EC22014FC15C2939B0D2DB4B45643319AE817EC0F6041255A68B86CFCFC856D4D76DF7CE190393373060EDB3DC707F856CE6B6B7A480A0C81328395DA5C7B18C3057510EC3873D686
310
3F34088C18550F330C39BB3A1BA7051AAC09CA84841A2BD5020AEF55806078A44B0FFD7053A328440C89E1EFC52486BBB8AA8214A99D789CF9E05200300FC927E4FB4D5B375D43103D5527440FB843077C5AA3F5861C8F645F5787F59E95B390B318B55CE45AA638FAA2957BD7248B390B7A7CC51F9C124149C82B8C378810
310
84AB2F42B7B8DD56F413775B8C5999E9FF4471926F8AA236A1AE96B8B3CC434E5839373893369E1FAF30EA395917409EB7F26AF8801C171837A4A6AC9C89E9F9C9B1A58BA30FD6A5EF5DDDCF894B9AD9B6A59C957943A9FCAE2FD5BC4DFE03504B0304140006080800CC70623BAD7543B64E01000033030000300000006662
310
782F41393633353835312D344632462D344230382D423046372D3739314545314133324237412F636E782E786D6CD593CD6EC32010845F0571AD6CE3D48AD20813A9873E410FBD12D82434182C7EAAE6EDBB2424CD25871E7B41D6EC30B3FA84F9E67BB2E40B4234DE8DB46F1925E094D7C6ED479AD3AE5951B2113C789FEE
310
6C943839C1488B4C05DF079FE72A69D8C96C13AAD6B8631503449F83828872B949AC57D26200B826A308D316B4064D6E46FCDA41C05550DC9E483A00797BFD207EFB092A45DE9514C1BBD22178396BD39D891265658C238DEA00936C654E5E433CB65A26D9F6EDB5EBC14EBF49A45CB856E66048291F6939A9A81BB5C89177
310
38143CA680F4AA299D66A042CEB3354A2684DC9D8D178FE0D9B8B41CAAD720F880EE7EF93C0C18769E099ECC04D5A102C8049A8A05632F4DDF376CF1DE0F6BB65C2F8627B65A33C6BB62177CEBBDAD973006829F89F22E814B54F4BC2BE347F8AA8F681390B50FA73F804400B5F542E796F19FF974E7F78DB802FE05E20750
310
4B0304140006080800CC70623BE75B7789680500003C100000340000006662782F41393633353835312D344632462D344230382D423046372D3739314545314133324237412F6F626A656374732E786D6CAD575B8F9B3818FD2B887D06C22499CB8AA1CA655245D5B455A356FB305264C061D8018C6C3393D95FBFC7600890
310
A4CD5EF210B0B1BFEBF98E3F7B1FF6596ABC522E1296DF9BAE3D320D9A872C4AF2F8DE2CE5CEBA358D0FBEC719939D65A691938CDE9B6ADAF4BD98B3B2D05311DD91329583D9D5FC0F438434A7A611A644887B5384CF34233629258BA878B12322891DEFF6B66BD70BFB62634E8AE781D082709A4B588AF91C528CDA28B73F
310
1C998EEF39EABBEFA97FBD6A7C7E9553F9D3D79FE442923C3C523610337627CB87ABE99D359D4CC6D6E4FACAB5E6ABF9D2726FC6A3C5F56271377BB88362213924694B38DD99FE47C48627A1E7D49F5A8BB5E1A74C0A599ED3B0F21F1E56366B89112D681E218F0915D0D6F17AD41FBA2A369DCF6335D62ABBD39779D5DDD1
310
11D4D8DE3CBB96B2E04FB8202E41051754A1AA8E8F76B4C6DFE810B580B1547F4B84911149794252234D024EF8BBE963A95AE27B3D310A9D5C215C7960FAEE415ED75694C6AFB17BCACA5D99A60A9AA65F217B0BFC53292ACB92BF283FAD0D3621576592CB5BED907C2FA8E9DF794E35E97BEA31BED21FEB401ABB94C44839
310
DCACBF0E1C5DA8DA5B2F4DFFD32AD86F543D9E565E7056502E157C00AD2671CD534549AB752FCA9CDA00677A313F04E51B22FF19E57B300579E3C97EB29F682D92935CEC18CF901B7B54FD8C51F362B56FC72FE0B3C1EAE335EDCCBF5AEC39ADB17DC238973F804BA5E6F6BFE7AF1FB32E523BE9F3BD571418E3631DCA4D48
310
5250CF639223210A9446CA30052EDF057BD35F8329C1ECD84552BF0DC8D18BE7BCE23BFE6BD960AB4A7DE79923A103BEBD80F911CBAA2C60DB19B01CF164A5583B772EE6D3FFA56666CBCDA74DC97724A48F9A58967497E489C4D979006FD7A05E227A1EBDD0F737C623387A9C844D3709995625106D157315F8B8392CD4E0
310
A0B9A720C4BE9829CEF37EA1E13111214D53925356365ADA634861B52519DD27A00AEB808EAF0628E6F435519D446F45CF2C9CF5214F0A15B2F6D06B79DA3EE3CBF7F56780D2F4E7EF73A0F5E5B02A38D07DC852C6B7C1FBB6664213E0C39E3EBA7FF4E1AD23EA2829407C85E586727488B751B2DB9502BC7B228A3FD68B6E
310
A65A22397E690AA8D158D7E404EC8CDA235CC3B7D1898680131CEC2CDF2638C65196279577750F15884AEE19F94199155B92B13297978469D4F8D358DF0AEF7631E28DC8F0D9F437D5D39A83B2231A1D52D543813A824EF8D44BCFF2FA6A31BD1E8DAD87F1CCB526B3879935BF59CDADD5C37479BB1CDD4CA7B3556B516589
310
EF352754B706114D9C885EC9131DE6EFEB43D99AFE2391C2F958179413D7CFEF6B1B6DB1E7600F00DE6E5C67454A339A4BA2E0FBA85ED26F045D454F463DBFCE484C2F90F2E5E3666003662ED8F755951A7D1BECD5B30B550B2785C8E7320B7292A4838DDA71BBC863ED7613CAF659337A3354231D4FF4A182A54904C2898C
310
98B28C4AD0CE056CCF332A80986E571EE9DBC305BB5FEB7E509220A58D25CF042D712A806AC0AD0C657FDEF80D2D9CEAA2EE4D1C76F60BFE74219A06527D6F82DF6412526107381E55E353090704D085B52408A8913C4ED159D79BDA71BB4BC506F4831350EB6F975CD22D69BF7AC49B91A2C0A9DDA3D5CA36AD20FC478E37
310
E61844E2352865EBCB61A275A65283CAAA9DD27703B4102F5AF51EF5F573B75CBB5AD38BC845F7A49F82A0966A49C2E3EA5EA0ECD326CD965F1DB402C6FA8B51A4658C5C5E2EC9E214602E55810345408596591009A82E7E7FFACA19EEA299B14A0081A705CB3296EBC14CDF658DCD336EA6D1136881AAEB87B81AB9EE53D5
310
F5EB8BC8362082DA24122F98680A4E7930C01A0079749CEA14382A0783E5EBA5A10F8C098456A03D6A4AEB6BB881E2513747552A5DB22C7EDAF83BD5528081A365F7FF06504B0304140006080000CC70623B000000000000000000000000350000006662782F41393633353835312D344632462D344230382D423046372D37
310
39314545314133324237412F76657274696365732E62696E504B0304140006080800CC70623BF270F1330600000004000000360000006662782F41393633353835312D344632462D344230382D423046372D3739314545314133324237412F747269616E676C65732E62696E636660600000504B0304140006080000CC7062
310
3B000000000000000000000000370000006662782F41393633353835312D344632462D344230382D423046372D3739314545314133324237412F617474726962757465732E62696E504B0304140006080800CC70623B08DA0BD19000000041010000360000006662782F41393633353835312D344632462D344230382D4230
310
46372D3739314545314133324237412F6469726563746F72792E786D6C858F410AC3201045AF22B36F53E9A60B35CBEEBAE80D244E44489C6234F4F835464A48035D0DF398FF9F8AF63D0E6CC63039F212F8F9020C7D47C6792B21C5FE7403D62A1188E2E60C98D7234A5830286103A55745067B9D86B8A3CF9C7F90C11DE6
310
07FB144396D7B6A82D282E9A152AD114D5EF2CB866EEE831B8EEA07A7BB5A8D7D61A2BAAEB7FD5F70921FF497D00504B0304140006080800CC70623BEDD1DC58FD000000A00100003B0000006662782F41393633353835312D344632462D344230382D423046372D3739314545314133324237412F7265736F75726365732F
310
636F72652E786D6C8D504B6E833010BD0A9A6D65B00922041947112427E8052C33A156828DFCA97AFC9A40A576D7CDCCE87D344F8F9FBFE667F689CE6B6B3A6039850C8DB2A336530731DC4903D95970676DF82583CCC8193B5861107C72362E3BA4AC096842428D1D7107A5F7182053CF7474E0D507CE32973124857FE48B
310
540F3961CEF244279DE03EB81420DB9EAC1384436FA353E879B1B182C7A8C75DA3C7F453DF353A1075D537A7BA6464B8F535A99AE14A9A2BBD90E350DD183B5CFABE3AF262350B1EF4FC9351399401471025A527C218A1E53BAB5A5AB765F5469B96525EACF23FA6B88CFF34456DC2A1DCE36E360F82A5202F42F062ED2BAD
310
579969AFDD8A6F504B010214000A0000080000CC70623B3DEE336E79000000790000001B00000000000000000000000000000000006175746F6465736B2D64657369676E2D7061636B6167652E786D6C504B01021400140006080800CC70623BD486FD9CA0000000F40000001300000000000000000000000000B20000005B
310
436F6E74656E745F54797065735D2E786D6C504B01021400140006080800CC70623B853B8169EB0000007C010000080000000000000000000000000083010000636F72652E786D6C504B01021400140006080800CC70623B55019EA25F0000007C000000070000000000000000000000000094020000636E782E786D6C504B
310
01021400140006080800CC70623BDBABAAF470010000D40300000C00000000000000000000000000180300006662782F636F72652E786D6C504B01021400140006080800CC70623B9C113CC27E0000009D0000000B00000000000000000000000000B20400006662782F636E782E786D6C504B01021400140006080800CC70
310
623B7DF2F77C2A010000120200003100000000000000000000000000590500006662782F41393633353835312D344632462D344230382D423046372D3739314545314133324237412F636F72652E786D6C504B01021400140006080800CC70623BAD7543B64E010000330300003000000000000000000000000000D2060000
310
6662782F41393633353835312D344632462D344230382D423046372D3739314545314133324237412F636E782E786D6C504B01021400140006080800CC70623BE75B7789680500003C10000034000000000000000000000000006E0800006662782F41393633353835312D344632462D344230382D423046372D3739314545
310
314133324237412F6F626A656374732E786D6C504B01021400140006080000CC70623B0000000000000000000000003500000000000000000000000000280E00006662782F41393633353835312D344632462D344230382D423046372D3739314545314133324237412F76657274696365732E62696E504B01021400140006
310
080800CC70623BF270F133060000000400000036000000000000000000000000007B0E00006662782F41393633353835312D344632462D344230382D423046372D3739314545314133324237412F747269616E676C65732E62696E504B01021400140006080000CC70623B0000000000000000000000003700000000000000
310
000000000000D50E00006662782F41393633353835312D344632462D344230382D423046372D3739314545314133324237412F617474726962757465732E62696E504B01021400140006080800CC70623B08DA0BD1900000004101000036000000000000000000000000002A0F00006662782F41393633353835312D344632
310
462D344230382D423046372D3739314545314133324237412F6469726563746F72792E786D6C504B01021400140006080800CC70623BEDD1DC58FD000000A00100003B000000000000000000000000000E1000006662782F41393633353835312D344632462D344230382D423046372D3739314545314133324237412F7265
310
736F75726365732F636F72652E786D6C504B0506000000000E000E0080040000641100000000
  0
XRECORD
  5
1F8
102
{ACAD_REACTORS
330
1F7
102
}
330
1F7
100
AcDbXrecord
280
     1
 70
     1
 90
429727718
  1
30362254-06B7-45E0-A893-8CFA70E3D6BC
310
504B03040A0000080000CC70623B3DEE336E79000000790000001B0000006175746F6465736B2D64657369676E2D7061636B6167652E786D6C3C3F786D6C2076657273696F6E3D22312E302220656E636F64696E673D227574662D3822203F3E3C666F726D6174733E3C666F726D61743E687474703A2F2F736368656D612E
310
6175746F6465736B2E636F6D2F64657369676E2D7061636B6167652F323030393C2F666F726D61743E3C2F666F726D6174733E504B0304140006080800CC70623BD486FD9CA0000000F4000000130000005B436F6E74656E745F54797065735D2E786D6C7D8EC10E82300C865F65E91D8A1E8C310C0EEA1BF002731658846E
310
D98AC1B77784ABF1D8FE5FBFBF75BBCE937A534CCEB38643598122B6FEE978D0B0485F9C41B54DDD7D022595594E1A469170414C76A4D9A4D207E29CF43ECE46F218070CC6BECC4078ACAA135ACF422C856C0E68EA1BF5669944DDD7BCDE7B1F8E415D77AECB980613C2E4AC91FC167A2B244592486606FC29C8FD7F045B9A
310
EF7053A7E60B504B0304140006080800CC70623B1EC5D7A3EB0000007C01000008000000636F72652E786D6C8D90416EC3201045AF82665B6103C6756C6122AB4D4ED00B204C5C94182C03558F5F9C3852BBEB6A467FFE9B197D71FC9E6FE8CBACC17AD7032D0820E3B41FAD9B7A48F1820F808E52ACDEC75F36404ECDA687
310
4D0629A6D5A76597B477D1B89855E747B38B2A041301E95B6E7A08FAD3CCAA50296647B8168BD2573599823EBB0CA76447F43862C7BCCF5EAC59410E4DDD9C7973C2755553CCCFA4C603E3040F1565ED3B1FDE4E432BCA0D9622DAF9795FAF464533826484B498524CD807E51D79ED187F21878E10516EF63F505AC67F42C9
310
BA58B1FDDD071640D2FCC87D2045B96591CB3DA85CB7DCE40F504B0304140006080800CC70623B55019EA25F0000007C00000007000000636E782E786D6C4DCB3B0E80201045D1AD90E915ED2CF8AC45050C11660C8261F98AB1B07AC9C97D42D718D865D3E909258CFD00CCE24AC6E326A164D74DC0B4128928FF32603847
310
2BA13128B1252AC747C6BAB984FC68F0B87FE8960A5C09FE86CFB69FBA01504B0304140006080800CC70623B8C9102E971010000D40300000C0000006662782F636F72652E786D6CC5535B6E833010BC8AE5DF0A6C08340F1947A84D4ED00B38C6A128602363A31CBFCB234A53A551FA553EC09AD9F5CE8C31DB9E9B1AF5CA
310
7695D1198E428A91D2D214952E33ECDD315861B4E5CC1AE3BE9561A445A3323CC098B3D21ADFCE9034DA29ED00D5A6503328BA4E398C640D8B0C77F253352214DE4145770A5B214FA2546114020D759C75CE8200340D19DE981F0F6746269C33EFAB6266AB02A655C74A59CCF365BADC27CB5D902ED22848F6340DF238A141
310
BE88E2F57B92BFEDF23523433367AE6A2EEAA455C2A902F398D2751045018D3FA264435F3771F242571B4A1919CA6F9A7C5B3CD9E42BED16F12C776AEB308F40C848FC700B1139D4891EF410CEC810227CC6846F8386402064270EF5C5C709A05E49676C024C61FC95EA45ED154CA5211D1FF4FB8291A913A68E9B83EBBB33
310
E2A7673CDE118E5AE8124C0807CB8377834E366998436B950D7A7746DAD846D4CFD978E0F04FD455FC5D49D2D4C6FE9722321F10997F0F32DC47FE05504B0304140006080800CC70623BFFEA85907E0000009D0000000B0000006662782F636E782E786D6C4DCCD10A83201886E15B91FFDC95D95A811AB6F23E625948A6C3
310
E9D8E5AF46073BFAE0E1E365ED67B3E8ADC3CB78C7815C7240DA3DFC64DCC221C519D7805AC182F7F1EF06C88D9BE6703008B6049F9E274D7A1E938DBB5AE3D6131B2589BA0D3D965551E0B2EA732C9B9A624AAEB41E3A557677029960D9AFB4EF11165F504B0304140006080800CC70623B4FEEA4082C0100001202000031
310
0000006662782F39464131463745442D413632322D343644302D413938332D3331353338454246344243312F636F72652E786D6C8D515B6EC32010BC0AE2AB55850DD871ED0813254D72825EC00192A2C460F1A872FC42ED48ED5F7E00CDCECCCEB26C731F6FE05B39AFADE921293004CA082BB5B9F43086336A21D870E6AC
310
0D7F68109861543DCC30E4ECE26C9C164858139409093556AA051CBC570102714B8F1E7AF1A5C6A11862480C7F2DA6415C878B2A4891CA89C7990F2E050073937C42DE1DB7E4F87ED8A36D4329AA9B3D46DBAEAD504556557BD81DEBDD0761E52CE42C462D17B996298E3E6BE59E35C962CE821E1FF18553435012728A7187
310
0841987E927A8D9B35ADDF70BBC6989599FE4F1427F9A4286A132ABAC49D651EF234CD5CE04CDA78BA3DC2A8FB645D00B9DF8B57E215725C60BCA2A463E54C4CE327C7A65E1C7DB02E7DEFCBF594B864C5CA6CDBD49C957943E9FA5D5FBAF336F90F504B0304140006080800CC70623BAD7543B64E01000033030000300000
310
006662782F39464131463745442D413632322D343644302D413938332D3331353338454246344243312F636E782E786D6CD593CD6EC32010845F0571AD6CE3D48AD20813A9873E410FBD12D82434182C7EAAE6EDBB2424CD25871E7B41D6EC30B3FA84F9E67BB2E40B4234DE8DB46F1925E094D7C6ED479AD3AE5951B2113C
310
789FEE6C943839C1488B4C05DF079FE72A69D8C96C13AAD6B8631503449F83828872B949AC57D26200B826A308D316B4064D6E46FCDA41C05550DC9E483A00797BFD207EFB092A45DE9514C1BBD22178396BD39D891265658C238DEA00936C654E5E433CB65A26D9F6EDB5EBC14EBF49A45CB856E66048291F6939A9A81BB5
310
C8917738143CA680F4AA299D66A042CEB3354A2684DC9D8D178FE0D9B8B41CAAD720F880EE7EF93C0C18769E099ECC04D5A102C8049A8A05632F4DDF376CF1DE0F6BB65C2F8627B65A33C6BB62177CEBBDAD973006829F89F22E814B54F4BC2BE347F8AA8F681390B50FA73F804400B5F542E796F19FF974E7F78DB802FE05
310
E207504B0304140006080800CC70623B16AB87BA640500003C100000340000006662782F39464131463745442D413632322D343644302D413938332D3331353338454246344243312F6F626A656374732E786D6CAD575B6FA33818FD2B887DE6924B3BED8A326A92B68A663B534DD4D13E548A0C38942D60649B369D5FBFC7
310
600890A493BDE42160637FD7F31D7FF63E6FB3D478A55C242CBF3247B66B1A340F5994E4F19559CA8D75611A9F7D8F33263BCB4C232719BD32D5B4E97B316765A1A722BA21652A07B3B7B33F0D11D29C9A46981221AE4C113ED38CD8A4942CA2E2C58E882476BCD9DA23BB5ED8171B73523C0F841684D35CC252CCE79062D4
310
468DFA43D7747CCF51DF7D4FFDEB5593E3AB9CCA9FBEFE241792E4E19EB28198C968BAB8199F5D5A67D3E9C49A9E8F47D6EC76B6B0469F26EEFC7C3EBFBCBEB98462213924694B38DD98FE1D62C393D073EA4FADC5DAF04326852CCF6958F90F0F2B9BB5C48816348F90C7840A68EB78EDF68723159BCEE7891A6B95DDE9D3
310
BCEAEEE8086A6C6F9E5D4B59F0175C10A7A0820BAA5055C7473B5AE3CFDD452D602CD5DF12616444529E90D448938013FE6EFA58AA96F85E4F8C42275708571E98FE6827AF6B2B4AE3D7D83D64E5A64C53054DD3AF90BD06FEA9149565C94FCA0F6B834DC85599E4F2423B24DF0B6AFA979E534DFA9E7A4CC6FA631D486393
310
921829879BF5D781A373557BCB85E97FB90DB62B558F8795179C15944B051F40AB495CF35451D26A4727654E6D8033BD98EF82F21D91FF8AF2DD9982BCF1643BDD4EB516C9492E368C67C88DED563FC36D5EACF66DFF057C3658BDBFA69DF9578B3DA735B64F18C7F20770A9D45CFCF7FCF563D6456A277DBEF78A02637CA2
310
43B90A490AEAB94F72244481D24819A6C0E59B606BFA4B3025981DBB48EAB701D97BF19C577CC77F2D1B6C55A9EF3C732474C0B727303F625995056C3B02963D9EAC146BE78EC5FCEC7FA999EBC5EACBAAE41B12D27B4D2C0BBA49F244E2ECDC81B76B502F113D8F5EE8FB1BE3111CDD4FC2AA9B844CAB1288B68AB90A7CDC
310
1C166AB0D3DC5310625FCC14E779BFD0709F8890A629C9292B1B2DED31A4B0DA928CEE135085754027E3018A397D4D5427D15BD1330B677DC8934285AC3DF45A9EB68FF8F2B8FC0A509AFEECFD0FF2DE25CC6047F7214B195F07EFEB9A094D800F7BFAE8FED187B78EA8A3A400F115961BCAD1215E47C966530AF0EE8128FE
310
58CEBB996A8964FFA529A046635D9353B0336A8F700DDF46271A024E70B0B37C9DE01847591E54DED53D54202AB947E4076556AC49C6CA5C9E1226B7F1A7B1BE15DEED62C41B91E1B3E9AFAAA735036547343A925075041DF0A9979E893B391F8FCFA6967B3EFB644DCF6E5CEBFAE272625DCC6FAF3FB93793C5F90CE1EF57
310
407342756B10D1C489E8953CD1617E5CEECAD6F4EF8914CE5D5D504E5C3F1F9736DA62CFC11E00BCDDB8CC8A9466349744C1F75EBDA4DF09BA8A9E8C7A7E9991989E20E5DBDD6A6003664ED8F7A04A8DBE0DF6EAD9B9AA858342E47399053949D2C146EDB85DE4B176BB0965FBAC19BD19AA918E27FA50C1D22402E144464C
310
59462568E704B6E71915404CB72B8FF4EDE184DDAF753F284990D2C6926782963815403548A70C657FDEF80D2D9CEAA2AE4C1C76F60BFE74219A06527D6582DF6412526107381E55E353090704D085B52408D0933C4ED159D79BDA71BB4BC506F4831350EB6F979CD22D69BF7AC49B91A2C0A9DDA3D5CA36AD20FC478E37E6
310
1844E2352865EBCB6EA275A652E3836BE04EFB400BF1A2556F515F1FBB35B2AB35BD889C744FFA1004B5544B121E57F70215746DD2F5E2C1412B602CBF19455AC6C8E5E9922C4E01E65215385004546899059180EAFCF7A707CE7017CD8CDB0410789AB32C63B91E5CEBBBACB17AC6CD347A022D5075FD106377347AAABA7E
310
7D11590744509B44E205134DC1290F06580320F78E537D3D73540E06CB970B431F185308AD40BBD794D6D77003C5A36E8EAA54BA64597CD8F83BD552A080A365F7FF06504B0304140006080000CC70623B000000000000000000000000350000006662782F39464131463745442D413632322D343644302D413938332D3331
310
353338454246344243312F76657274696365732E62696E504B0304140006080800CC70623BF270F1330600000004000000360000006662782F39464131463745442D413632322D343644302D413938332D3331353338454246344243312F747269616E676C65732E62696E636660600000504B0304140006080000CC70623B
310
000000000000000000000000370000006662782F39464131463745442D413632322D343644302D413938332D3331353338454246344243312F617474726962757465732E62696E504B0304140006080800CC70623B08DA0BD19000000041010000360000006662782F39464131463745442D413632322D343644302D413938
310
332D3331353338454246344243312F6469726563746F72792E786D6C858F410AC3201045AF22B36F53E9A60B35CBEEBAE80D244E44489C6234F4F835464A48035D0DF398FF9F8AF63D0E6CC63039F212F8F9020C7D47C6792B21C5FE7403D62A1188E2E60C98D7234A5830286103A55745067B9D86B8A3CF9C7F90C11DE607
310
FB144396D7B6A82D282E9A152AD114D5EF2CB866EEE831B8EEA07A7BB5A8D7D61A2BAAEB7FD5F70921FF497D00504B0304140006080800CC70623B0D6EF93BFE000000A00100003B0000006662782F39464131463745442D413632322D343644302D413938332D3331353338454246344243312F7265736F75726365732F63
310
6F72652E786D6C8D50596E833010BD0A9ADFCA60B334011947A8694ED00B586642AC041B79A97AFC9A40A5F6AF3F33A3B7689E1E3F7DCD8FEC139DD7D6F4C0720A191A65476DA61E62B892236427C19DB5E1970C322367EC618541F0C9D9B8EC90B226A009093576C41D94DE63804C3DD2D18357379C652E63480A7FCF17A9
310
EE72C29CE5894E3AC17D702940B63D59270887DE46A7D0F36263058F518FBB468FE9A7BE6A7420864373B8D4873369AA8691FA421B3294352543C5CAF65C0F6FEF43CB8BD52C78D0F34F46E550061C419494B6843142CB0F5677F4B52BEB177AEC28E5C52AFF638ACBF84F53D42654E51E77B379102C05791282176B5F693D
310
CB4C7BED567C03504B010214000A0000080000CC70623B3DEE336E79000000790000001B00000000000000000000000000000000006175746F6465736B2D64657369676E2D7061636B6167652E786D6C504B01021400140006080800CC70623BD486FD9CA0000000F40000001300000000000000000000000000B20000005B
310
436F6E74656E745F54797065735D2E786D6C504B01021400140006080800CC70623B1EC5D7A3EB0000007C010000080000000000000000000000000083010000636F72652E786D6C504B01021400140006080800CC70623B55019EA25F0000007C000000070000000000000000000000000094020000636E782E786D6C504B
310
01021400140006080800CC70623B8C9102E971010000D40300000C00000000000000000000000000180300006662782F636F72652E786D6C504B01021400140006080800CC70623BFFEA85907E0000009D0000000B00000000000000000000000000B30400006662782F636E782E786D6C504B01021400140006080800CC70
310
623B4FEEA4082C0100001202000031000000000000000000000000005A0500006662782F39464131463745442D413632322D343644302D413938332D3331353338454246344243312F636F72652E786D6C504B01021400140006080800CC70623BAD7543B64E010000330300003000000000000000000000000000D5060000
310
6662782F39464131463745442D413632322D343644302D413938332D3331353338454246344243312F636E782E786D6C504B01021400140006080800CC70623B16AB87BA640500003C1000003400000000000000000000000000710800006662782F39464131463745442D413632322D343644302D413938332D3331353338
310
454246344243312F6F626A656374732E786D6C504B01021400140006080000CC70623B0000000000000000000000003500000000000000000000000000270E00006662782F39464131463745442D413632322D343644302D413938332D3331353338454246344243312F76657274696365732E62696E504B01021400140006
310
080800CC70623BF270F133060000000400000036000000000000000000000000007A0E00006662782F39464131463745442D413632322D343644302D413938332D3331353338454246344243312F747269616E676C65732E62696E504B01021400140006080000CC70623B0000000000000000000000003700000000000000
310
000000000000D40E00006662782F39464131463745442D413632322D343644302D413938332D3331353338454246344243312F617474726962757465732E62696E504B01021400140006080800CC70623B08DA0BD190000000410100003600000000000000000000000000290F00006662782F39464131463745442D413632
310
322D343644302D413938332D3331353338454246344243312F6469726563746F72792E786D6C504B01021400140006080800CC70623B0D6EF93BFE000000A00100003B000000000000000000000000000D1000006662782F39464131463745442D413632322D343644302D413938332D3331353338454246344243312F7265
310
736F75726365732F636F72652E786D6C504B0506000000000E000E0080040000641100000000
  0
XRECORD
  5
175
102
{ACAD_REACTORS
330
173
102
}
330
173
100
AcDbXrecord
280
     1
270
     1
271
     1
  0
XRECORD
  5
174
102
{ACAD_REACTORS
330
173
102
}
330
173
100
AcDbXrecord
280
     1
270
     1
271
     1
  0
XRECORD
  5
1FB
102
{ACAD_REACTORS
330
173
102
}
330
173
100
AcDbXrecord
280
     1
 70
     0
 90
1673772943
  1
ECE7A1D2-D628-4531-984C-D00F80459256
310
504B03040A0000080000CC70623B3DEE336E79000000790000001B0000006175746F6465736B2D64657369676E2D7061636B6167652E786D6C3C3F786D6C2076657273696F6E3D22312E302220656E636F64696E673D227574662D3822203F3E3C666F726D6174733E3C666F726D61743E687474703A2F2F736368656D612E
310
6175746F6465736B2E636F6D2F64657369676E2D7061636B6167652F323030393C2F666F726D61743E3C2F666F726D6174733E504B0304140006080800CC70623BD486FD9CA0000000F4000000130000005B436F6E74656E745F54797065735D2E786D6C7D8EC10E82300C865F65E91D8A1E8C310C0EEA1BF002731658846E
310
D98AC1B77784ABF1D8FE5FBFBF75BBCE937A534CCEB38643598122B6FEE978D0B0485F9C41B54DDD7D022595594E1A469170414C76A4D9A4D207E29CF43ECE46F218070CC6BECC4078ACAA135ACF422C856C0E68EA1BF5669944DDD7BCDE7B1F8E415D77AECB980613C2E4AC91FC167A2B244592486606FC29C8FD7F045B9A
310
EF7053A7E60B504B0304140006080800CC70623BD9DDAED0EC0000007C01000008000000636F72652E786D6C8D90416EC3201045AF82665B61836D9CD8C2444DD39CA01740405C94182C03558F5F9C3852BBEB6A467FFE9B197D7EF89E6EE8CB2CC17A37002D0820E394D7D68D03A478C17B4007C117EFE32F1B20272733C0
310
2A83E0E3E2D3BC49CABB685CCCAAF3DA6CA20CC14440EA969B0182FA34932C648AD911AEC52CD5558EA6A0CF2EC329598D1E47ACCEFBECC59A050463A7EA5833865FEBDD0E37353BE3EE8DBDE3F6786A48D375FBF6CC78B9C282473B3DEFABC5C86834888A900E538A49F5419B9EB47DD5BC907D4F082F57FB1F28CDFA9F50
310
B22ED6D5F6EE030B20687EE43E10BC5CB3C8E51E54AE6B6EE207504B0304140006080800CC70623B55019EA25F0000007C00000007000000636E782E786D6C4DCB3B0E80201045D1AD90E915ED2CF8AC45050C11660C8261F98AB1B07AC9C97D42D718D865D3E909258CFD00CCE24AC6E326A164D74DC0B4128928FF326038
310
472BA13128B1252AC747C6BAB984FC68F0B87FE8960A5C09FE86CFB69FBA01504B0304140006080800CC70623BA24EB22D72010000D40300000C0000006662782F636F72652E786D6CC5535B6E833010BC8AE5DF0A6C5E49888CA3A6694ED00B38E05014B091B1518EDFE511A5A9D228FD2A1F60CDEC7A67C6986DCE4D8D7A
310
69BA4AAB0C073EC548AA5C17952A33ECECD15B61B4E1CC686DBF9561A44423333CC098B3D268D7CE50AE9595CA02AA74216750749DB418E5352C32DCE59FB211BE70162ABA93DF8AFC244AE9073ED050C759670D0840D390E18DF9F1706664C23973AE2A66B62A605A75ACA4C13C4976E1364A12EF355A2EBD384AF65EFA96
310
BC7B8BED2EA6719AAE16FB8491A199335B351775B991C2CA02F390D2D40B028F861F41BCA68B7518BFD0D59A524686F29B26D7164F36B94AD9289CE54E6D1DE6010819891F6E21228B3AD1831EC219194284CF98F06DD01008846CC5A1BEF83801D4CBDC6A1303536877A57A513B0953A94FC707FDBE6064EA84A9E3E6E0FA
310
EE8CF0E9198F7784A316AA0413C2C2F2E0ECA0934D1AE6D05A69BCDE9E91D2A611F573361E38FC1375157F5752AE6B6DFE4B11990F88CCBF0719EE23FF02504B0304140006080800CC70623B408A7D3B7C0000009D0000000B0000006662782F636E782E786D6C4DCCD10A83201886E15B91FFDC552A92A0064DBC8F581632
310
D3703A76F9ABD1C18E3E78F878E5F0D9027ABBFCF2292AE86E2D20171F69F6715550CB827B40839639A5F2770314A7CD293819B45C73AAFB45B35BA61ACAA1C1C7E7855C58C15BC331339661262CC762340413D68D77DA5B42298546CBE6573AF60CEB2F504B0304140006080800CC70623B449FB9BD290100001202000031
310
0000006662782F36394639363044362D344446342D343946362D394244322D3234314243333846323333332F636F72652E786D6C8D515B6EC32010BC0AE22B55850D98B871848994463E412FE002495162B07854397EA176A4F62F3F2C9A9D991D587EB84F37F0AD7D30CEF6905418026DA553C65E7A98E219ED203808EE9D
310
8B7F6810D871D23D2C3014FCE25D9A57483A1BB58D19B54EE9151C43D0110279CB971E06F9A5A7B11A53CC8C70ADE6515EC78BAE4895DB992778883E0700CB907242D17643D7E2538BD869608875438BBAE38922CAC8F1BDD90DB4691A5E2F42C153326A951B95E398B3D1FE599322163C9AE9115F7A3D46ADA0A018778810
310
84E907617BDCEE297BC5BB3DC6BC2EF47FA234AB2745C9D8D8D035EE220B50105E2F0DC1954B9FB747187D9F9D8FA0CCDB042D5FA0C015C65B42DF78BD10F3F3B363CB56C7109DCFDFBBB97E662ED92EB62D13BC2E1BCAE5777DB9966D8A1F504B0304140006080800CC70623BAD7543B64E01000033030000300000006662
310
782F36394639363044362D344446342D343946362D394244322D3234314243333846323333332F636E782E786D6CD593CD6EC32010845F0571AD6CE3D48AD20813A9873E410FBD12D82434182C7EAAE6EDBB2424CD25871E7B41D6EC30B3FA84F9E67BB2E40B4234DE8DB46F1925E094D7C6ED479AD3AE5951B2113C789FEE
310
6C943839C1488B4C05DF079FE72A69D8C96C13AAD6B8631503449F83828872B949AC57D26200B826A308D316B4064D6E46FCDA41C05550DC9E483A00797BFD207EFB092A45DE9514C1BBD22178396BD39D891265658C238DEA00936C654E5E433CB65A26D9F6EDB5EBC14EBF49A45CB856E66048291F6939A9A81BB5C89177
310
38143CA680F4AA299D66A042CEB3354A2684DC9D8D178FE0D9B8B41CAAD720F880EE7EF93C0C18769E099ECC04D5A102C8049A8A05632F4DDF376CF1DE0F6BB65C2F8627B65A33C6BB62177CEBBDAD973006829F89F22E814B54F4BC2BE347F8AA8F681390B50FA73F804400B5F542E796F19FF974E7F78DB802FE05E20750
310
4B0304140006080800CC70623B8D05915C650500003B100000340000006662782F36394639363044362D344446342D343946362D394244322D3234314243333846323333332F6F626A656374732E786D6CAD575B6FA33814FE2B887D06429276DA1565D4266D158D3A339A6846FB502932E050B66023DB74D2FDF5FB190C01
310
9276B2973C046C8ECFF53B17071F77456EBD502133CEAE6CDF9DD81665314F32965ED995DA3A17B6F5310C04E7AA47665B8C14F4CAD6DB7618A48257A5D94AE89654B91AEDDEDDFC61C998326A5B714EA4BCB265FC440BE2924AF184CA6737218AB8E976E7FA6E4338649B0A523E8D98964450A6A029F619B8588D52FE7039
310
B1BD30F0F4F730D0FF866AF6369557DB33949F31A9088B0F848DD8CCFCF9F2767A76E99CCDE733677E3EF59D9BBB9BA5E37F984D16E78BC5E5F5ED25044B25C0C96822E8D60EEFE11B91C581D77CEA34368A1F5329E68CD1B8B61F16D63A1B8E092D294B10C78C4A48EB593D192E7DED9BDEE7995E1B91FDEDD3ACEA9FE831
310
6A756F9F7D4D79F4274C90A7A04248AA51D5F8C718DAE06FB2F75AC4796EBE65D22A88A22223B995679120E2D50E41AA49C260C046A35368846B0BECD0DFF3EBEB8AD4F835768F69B9ADF25C43D30E6B646F807FAA64AD59F61715C7A54127C4AACA98BA3006A9D792DAE165E0D59B61A01FB3A9F9D838D2DAE62445C86166
310
F37564E842E7DE6A69879FEEA2DD5AE7E371E1A5E025154AC307D06A03D73EB5978C58FFA4C8E9033066E0F3BD53BEC1F39F91BE7B55103791EDE6BBB991A2046172CB4581D8B893FA674DDA17A77B3B7C413D1B511FD2743BFF8A38F03A658705E3ADF8015C3A3417FF3D7E439FF591DA0B5F18BC20C1B8981957AE6392A3
310
F43C640C01D1A0B4728E2DD4F26DB4B3C3152A252A3B4E913CEC1C72F012782FF88EFF8637AA552DBEF76408E8A8DE9E50F9E1CB3A2DA0DB1B6039A893B56063DC5B3E3FFB5F72E67AB9FEB4AEC496C4F4C1149625DD662C53E89D7BF0F6151A046260D1337DFDC94502430F83B0EE07A130A224BCAD7DAE1D9FB6CD422FF6
310
920702629C4BB9AE79C12F243C6432A6794E18E5552BA56B431AAB5D91317302B2B071E86C3A42B1A02F999E24061403B5D0EB639195DA655DD3EBEAB4FB862DDF579F014AD0E73C22F99E28DA57FB98E75C6CA2D74D53086D600F4786E0FE3144B771A8A7B900F03594DB8A633CBC49B2EDB69228BB479CF863B5E807AAAB
310
23872F6DFEB4129B949CA33823F58830E86D65621E10047D9DB34D862E8EAC3C2ABC2F7B2C40D67CDFE01F5545B92105AF983AC54D93D69E56FB8E797F88913F898A9FEC705D3F9D1B54EC8426FB500D40A03BD0119B06E1B95DDC7EB8F6975367793EBD70E66733DFB9BC982F9CE564727731999F5D4ECFCE3B8D6A4DC2A0
310
6D50FD148437D110834A64C6CDDF57FBACB5C307A2A477DFE4939736CFEF2B175371E0E10CF0DD1D5C15654E0BCA14D1E87DD02FF93782A162C0A3D95F1524A52770F972BF1EE9809D13CE7DD599467F8ECE9ADD85CE85A34CD45355448C64F9E8A031DC2D596ACC6E5DD93D9B82DE2EF5CAF81363A8E47996A0DE24564A79
310
4115AACE09C55E14540231FDA13C319787134EBF34E3A022514E5B4D9E0826E25C02D5805B15ABE1BEF51B26383D445DD9E875EE33FE4C22DA16427D65A3BCA92CA6D28DD01DF5DC53330704308475351050232CCD31583787BA75774AFB06E5070DD0C8EF484E19968C5D83BA5B90B244D31E54D55A372320FE4786B7EA58
310
44E135AA5467CB7EA333A61683CC6A8C3257034C10CF46F40EF9F5BE59BE5BD30C3C72D235E95D10345C1D45445A5F0BB47E46A5EBE5570F9380B5FA629579952296A773720405982B9DE04011506178964401AA8BDF1FBF0A8EAB6861DD6580C0E38217056766716DAEB2D6FA0917D3E4116581EADB879C4E7CFFB11EFACD
310
3D641311495D92C8676CB409A72D18610D803CE8A626049E8EC1887CB5B44CC39883690DDA8399B4B9855B481E7D71D4A9D22F96E5BB73BF5793020C02137BF837504B0304140006080000CC70623B000000000000000000000000350000006662782F36394639363044362D344446342D343946362D394244322D32343142
310
43333846323333332F76657274696365732E62696E504B0304140006080800CC70623BF270F1330600000004000000360000006662782F36394639363044362D344446342D343946362D394244322D3234314243333846323333332F747269616E676C65732E62696E636660600000504B0304140006080000CC70623B0000
310
00000000000000000000370000006662782F36394639363044362D344446342D343946362D394244322D3234314243333846323333332F617474726962757465732E62696E504B0304140006080800CC70623B08DA0BD19000000041010000360000006662782F36394639363044362D344446342D343946362D394244322D
310
3234314243333846323333332F6469726563746F72792E786D6C858F410AC3201045AF22B36F53E9A60B35CBEEBAE80D244E44489C6234F4F835464A48035D0DF398FF9F8AF63D0E6CC63039F212F8F9020C7D47C6792B21C5FE7403D62A1188E2E60C98D7234A5830286103A55745067B9D86B8A3CF9C7F90C11DE607FB14
310
4396D7B6A82D282E9A152AD114D5EF2CB866EEE831B8EEA07A7BB5A8D7D61A2BAAEB7FD5F70921FF497D00504B0304140006080800CC70623BCA768048FE000000A00100003B0000006662782F36394639363044362D344446342D343946362D394244322D3234314243333846323333332F7265736F75726365732F636F72
310
652E786D6C8D50596E833010BD0A9ADFCA60D600328E9AA639412F609909B1126CE4A5EAF16B0295DABFFECC8CDEA2797AECF8353F924FB44E193D409E5248504B332A3D0D10FC95B4901C39B3C6F85F3248B49871801506CE266BC2B243D2688FDA47549B11775038871E12F988C7004EDE7016A9083E2ADC3D5D84BC8B09
310
D33C8D74D471E6BC8D0192EDC93A815B742658898E651BCB59086ADC356A8C3FD555A1055ED7E7E254D615792D0F075295F585746FF53B694EE78A565DD736979A65AB9933AFE69F8CD2A2F038022F28ED489E135A7CE4554F9BBEA85E68DB53CAB255FEC71496F19FA6A0B42F8B3DEE6673C0F318E4497096AD7DC5F52C33
310
EEB55BFE0D504B010214000A0000080000CC70623B3DEE336E79000000790000001B00000000000000000000000000000000006175746F6465736B2D64657369676E2D7061636B6167652E786D6C504B01021400140006080800CC70623BD486FD9CA0000000F40000001300000000000000000000000000B20000005B436F
310
6E74656E745F54797065735D2E786D6C504B01021400140006080800CC70623BD9DDAED0EC0000007C010000080000000000000000000000000083010000636F72652E786D6C504B01021400140006080800CC70623B55019EA25F0000007C000000070000000000000000000000000095020000636E782E786D6C504B0102
310
1400140006080800CC70623BA24EB22D72010000D40300000C00000000000000000000000000190300006662782F636F72652E786D6C504B01021400140006080800CC70623B408A7D3B7C0000009D0000000B00000000000000000000000000B50400006662782F636E782E786D6C504B01021400140006080800CC70623B
310
449FB9BD290100001202000031000000000000000000000000005A0500006662782F36394639363044362D344446342D343946362D394244322D3234314243333846323333332F636F72652E786D6C504B01021400140006080800CC70623BAD7543B64E010000330300003000000000000000000000000000D20600006662
310
782F36394639363044362D344446342D343946362D394244322D3234314243333846323333332F636E782E786D6C504B01021400140006080800CC70623B8D05915C650500003B10000034000000000000000000000000006E0800006662782F36394639363044362D344446342D343946362D394244322D32343142433338
310
46323333332F6F626A656374732E786D6C504B01021400140006080000CC70623B0000000000000000000000003500000000000000000000000000250E00006662782F36394639363044362D344446342D343946362D394244322D3234314243333846323333332F76657274696365732E62696E504B010214001400060808
310
00CC70623BF270F13306000000040000003600000000000000000000000000780E00006662782F36394639363044362D344446342D343946362D394244322D3234314243333846323333332F747269616E676C65732E62696E504B01021400140006080000CC70623B00000000000000000000000037000000000000000000
310
00000000D20E00006662782F36394639363044362D344446342D343946362D394244322D3234314243333846323333332F617474726962757465732E62696E504B01021400140006080800CC70623B08DA0BD190000000410100003600000000000000000000000000270F00006662782F36394639363044362D344446342D
310
343946362D394244322D3234314243333846323333332F6469726563746F72792E786D6C504B01021400140006080800CC70623BCA768048FE000000A00100003B000000000000000000000000000B1000006662782F36394639363044362D344446342D343946362D394244322D3234314243333846323333332F7265736F
310
75726365732F636F72652E786D6C504B0506000000000E000E0080040000621100000000
  0
XRECORD
  5
176
102
{ACAD_REACTORS
330
173
102
}
330
173
100
AcDbXrecord
280
     1
270
     1
271
     1
  0
XRECORD
  5
177
102
{ACAD_REACTORS
330
173
102
}
330
173
100
AcDbXrecord
280
     1
270
     1
271
     1
  0
XRECORD
  5
ED7
102
{ACAD_REACTORS
330
ED6
102
}
330
ED6
100
AcDbXrecord
280
     1
102
DISPLAYNAME
  1
Metric50
102
FLAGS
 90
        0
  0
CELLSTYLEMAP
  5
ECC
102
{ACAD_REACTORS
330
162
102
}
330
162
100
AcDbCellStyleMap
 90
        3
300
CELLSTYLE
  1
TABLEFORMAT_BEGIN
 90
        5
170
     1
 91
        0
 92
    32768
 62
   257
 93
        1
300
CONTENTFORMAT
  1
CONTENTFORMAT_BEGIN
 90
        0
 91
        0
 92
      512
 93
        0
300

 40
0.0
140
1.0
 94
        5
 62
     0
340
11
144
6.0
309
CONTENTFORMAT_END
171
     1
301
MARGIN
  1
CELLMARGIN_BEGIN
 40
1.5
 40
1.5
 40
1.5
 40
1.5
 40
0.18
 40
0.18
309
CELLMARGIN_END
 94
        6
 95
        1
302
GRIDFORMAT
  1
GRIDFORMAT_BEGIN
 90
        0
 91
        1
 62
     0
 92
       -2
340
14
 93
        0
 40
1.125
309
GRIDFORMAT_END
 95
        2
302
GRIDFORMAT
  1
GRIDFORMAT_BEGIN
 90
        0
 91
        1
 62
     0
 92
       -2
340
14
 93
        0
 40
1.125
309
GRIDFORMAT_END
 95
        4
302
GRIDFORMAT
  1
GRIDFORMAT_BEGIN
 90
        0
 91
        1
 62
     0
 92
       -2
340
14
 93
        0
 40
1.125
309
GRIDFORMAT_END
 95
        8
302
GRIDFORMAT
  1
GRIDFORMAT_BEGIN
 90
        0
 91
        1
 62
     0
 92
       -2
340
14
 93
        0
 40
1.125
309
GRIDFORMAT_END
 95
       16
302
GRIDFORMAT
  1
GRIDFORMAT_BEGIN
 90
        0
 91
        1
 62
     0
 92
       -2
340
14
 93
        0
 40
1.125
309
GRIDFORMAT_END
 95
       32
302
GRIDFORMAT
  1
GRIDFORMAT_BEGIN
 90
        0
 91
        1
 62
     0
 92
       -2
340
14
 93
        0
 40
1.125
309
GRIDFORMAT_END
309
TABLEFORMAT_END
  1
CELLSTYLE_BEGIN
 90
        1
 91
        1
300
_TITLE
309
CELLSTYLE_END
300
CELLSTYLE
  1
TABLEFORMAT_BEGIN
 90
        5
170
     1
 91
        0
 92
        0
 62
   257
 93
        1
300
CONTENTFORMAT
  1
CONTENTFORMAT_BEGIN
 90
        0
 91
        0
 92
      512
 93
        0
300

 40
0.0
140
1.0
 94
        5
 62
     0
340
11
144
4.5
309
CONTENTFORMAT_END
171
     1
301
MARGIN
  1
CELLMARGIN_BEGIN
 40
1.5
 40
1.5
 40
1.5
 40
1.5
 40
0.18
 40
0.18
309
CELLMARGIN_END
 94
        6
 95
        1
302
GRIDFORMAT
  1
GRIDFORMAT_BEGIN
 90
        0
 91
        1
 62
     0
 92
       -2
340
14
 93
        0
 40
1.125
309
GRIDFORMAT_END
 95
        2
302
GRIDFORMAT
  1
GRIDFORMAT_BEGIN
 90
        0
 91
        1
 62
     0
 92
       -2
340
14
 93
        0
 40
1.125
309
GRIDFORMAT_END
 95
        4
302
GRIDFORMAT
  1
GRIDFORMAT_BEGIN
 90
        0
 91
        1
 62
     0
 92
       -2
340
14
 93
        0
 40
1.125
309
GRIDFORMAT_END
 95
        8
302
GRIDFORMAT
  1
GRIDFORMAT_BEGIN
 90
        0
 91
        1
 62
     0
 92
       -2
340
14
 93
        0
 40
1.125
309
GRIDFORMAT_END
 95
       16
302
GRIDFORMAT
  1
GRIDFORMAT_BEGIN
 90
        0
 91
        1
 62
     0
 92
       -2
340
14
 93
        0
 40
1.125
309
GRIDFORMAT_END
 95
       32
302
GRIDFORMAT
  1
GRIDFORMAT_BEGIN
 90
        0
 91
        1
 62
     0
 92
       -2
340
14
 93
        0
 40
1.125
309
GRIDFORMAT_END
309
TABLEFORMAT_END
  1
CELLSTYLE_BEGIN
 90
        2
 91
        1
300
_HEADER
309
CELLSTYLE_END
300
CELLSTYLE
  1
TABLEFORMAT_BEGIN
 90
        5
170
     1
 91
        0
 92
        0
 62
   257
 93
        1
300
CONTENTFORMAT
  1
CONTENTFORMAT_BEGIN
 90
        0
 91
        0
 92
      512
 93
        0
300

 40
0.0
140
1.0
 94
        2
 62
     0
340
11
144
4.5
309
CONTENTFORMAT_END
171
     1
301
MARGIN
  1
CELLMARGIN_BEGIN
 40
1.5
 40
1.5
 40
1.5
 40
1.5
 40
0.18
 40
0.18
309
CELLMARGIN_END
 94
        6
 95
        1
302
GRIDFORMAT
  1
GRIDFORMAT_BEGIN
 90
        0
 91
        1
 62
     0
 92
       -2
340
14
 93
        0
 40
1.125
309
GRIDFORMAT_END
 95
        2
302
GRIDFORMAT
  1
GRIDFORMAT_BEGIN
 90
        0
 91
        1
 62
     0
 92
       -2
340
14
 93
        0
 40
1.125
309
GRIDFORMAT_END
 95
        4
302
GRIDFORMAT
  1
GRIDFORMAT_BEGIN
 90
        0
 91
        1
 62
     0
 92
       -2
340
14
 93
        0
 40
1.125
309
GRIDFORMAT_END
 95
        8
302
GRIDFORMAT
  1
GRIDFORMAT_BEGIN
 90
        0
 91
        1
 62
     0
 92
       -2
340
14
 93
        0
 40
1.125
309
GRIDFORMAT_END
 95
       16
302
GRIDFORMAT
  1
GRIDFORMAT_BEGIN
 90
        0
 91
        1
 62
     0
 92
       -2
340
14
 93
        0
 40
1.125
309
GRIDFORMAT_END
 95
       32
302
GRIDFORMAT
  1
GRIDFORMAT_BEGIN
 90
        0
 91
        1
 62
     0
 92
       -2
340
14
 93
        0
 40
1.125
309
GRIDFORMAT_END
309
TABLEFORMAT_END
  1
CELLSTYLE_BEGIN
 90
        3
 91
        2
300
_DATA
309
CELLSTYLE_END
  0
AcDbCenterLineActionBody
  5
DDC
330
DDB
100
AcDbAssocActionBody
 90
        2
100
AcDbSmartCenterActionBody
 90
        0
  0
ACDBASSOCDEPENDENCY
  5
DE6
330
DDB
100
AcDbAssocDependency
 90
        2
 90
        0
290
     1
290
     1
290
     1
290
     1
 90
        0
330
DE4
290
     0
330
0
330
0
360
0
 90
        3
  0
ACDBASSOCEDGEACTIONPARAM
  5
DDD
330
DDB
100
AcDbAssocActionParam
 90
        1
 90
        0
  1
InputEdge
100
AcDbAssocSingleDependencyActionParam
 90
        0
330
0
100
AcDbAssocEdgeActionParam
 90
        0
330
0
290
     0
  0
ACDBASSOCEDGEACTIONPARAM
  5
DDF
330
DDB
100
AcDbAssocActionParam
 90
        1
 90
        0
  1
InputEdge
100
AcDbAssocSingleDependencyActionParam
 90
        0
330
0
100
AcDbAssocEdgeActionParam
 90
        0
330
0
290
     0
  0
ENDSEC
  0
SECTION
  2
ACDSDATA
 70
     2
 71
     8
  0
ACDSSCHEMA
 90
        0
  1
AcDb_Thumbnail_Schema
  2
AcDbDs::ID
280
    10
 91
        8
  2
Thumbnail_Data
280
    15
 91
        0
101
ACDSRECORD
 95
        0
 90
        1
  2
AcDbDs::TreatedAsObjectData
280
     1
291
     1
101
ACDSRECORD
 95
        0
 90
        2
  2
AcDbDs::Legacy
280
     1
291
     1
101
ACDSRECORD
  1
AcDbDs::ID
 90
        3
  2
AcDs:Indexable
280
     1
291
     1
101
ACDSRECORD
  1
AcDbDs::ID
 90
        4
  2
AcDbDs::HandleAttribute
280
     7
282
     1
  0
ACDSSCHEMA
 90
        1
  1
AcDbDs::TreatedAsObjectDataSchema
  2
AcDbDs::TreatedAsObjectData
280
     1
 91
        0
  0
ACDSSCHEMA
 90
        2
  1
AcDbDs::LegacySchema
  2
AcDbDs::Legacy
280
     1
 91
        0
  0
ACDSSCHEMA
 90
        3
  1
AcDbDs::IndexedPropertySchema
  2
AcDs:Indexable
280
     1
 91
        0
  0
ACDSSCHEMA
 90
        4
  1
AcDbDs::HandleAttributeSchema
  2
AcDbDs::HandleAttribute
280
     7
 91
        1
284
     1
  0
ACDSRECORD
 90
        0
  2
AcDbDs::ID
280
    10
320
22
  2
Thumbnail_Data
280
    15
 94
     1715
310
89504E470D0A1A0A0000000D49484452000001000000007E0803000000FCF33F5100000300504C5445212830FFFFFF2128300000000000000000000000000000000000000000000000000000330000660000990000CC0000FF0033000033330033660033990033CC0033FF0066000066330066660066990066CC0066FF0099
310
000099330099660099990099CC0099FF00CC0000CC3300CC6600CC9900CCCC00CCFF00FF0000FF3300FF6600FF9900FFCC00FFFF3300003300333300663300993300CC3300FF3333003333333333663333993333CC3333FF3366003366333366663366993366CC3366FF3399003399333399663399993399CC3399FF33CC00
310
33CC3333CC6633CC9933CCCC33CCFF33FF0033FF3333FF6633FF9933FFCC33FFFF6600006600336600666600996600CC6600FF6633006633336633666633996633CC6633FF6666006666336666666666996666CC6666FF6699006699336699666699996699CC6699FF66CC0066CC3366CC6666CC9966CCCC66CCFF66FF0066
310
FF3366FF6666FF9966FFCC66FFFF9900009900339900669900999900CC9900FF9933009933339933669933999933CC9933FF9966009966339966669966999966CC9966FF9999009999339999669999999999CC9999FF99CC0099CC3399CC6699CC9999CCCC99CCFF99FF0099FF3399FF6699FF9999FFCC99FFFFCC0000CC00
310
33CC0066CC0099CC00CCCC00FFCC3300CC3333CC3366CC3399CC33CCCC33FFCC6600CC6633CC6666CC6699CC66CCCC66FFCC9900CC9933CC9966CC9999CC99CCCC99FFCCCC00CCCC33CCCC66CCCC99CCCCCCCCCCFFCCFF00CCFF33CCFF66CCFF99CCFFCCCCFFFFFF0000FF0033FF0066FF0099FF00CCFF00FFFF3300FF3333
310
FF3366FF3399FF33CCFF33FFFF6600FF6633FF6666FF6699FF66CCFF66FFFF9900FF9933FF9966FF9999FF99CCFF99FFFFCC00FFCC33FFCC66FFCC99FFCCCCFFCCFFFFFF00FFFF33FFFF66FFFF99FFFFCCFFFFFF0000000D0D0D1A1A1A2828283535354343435050505D5D5D6B6B6B787878868686939393A1A1A1AEAEAEBB
310
BBBBC9C9C9D6D6D6E4E4E4F1F1F1FFFFFF0000000000000000000000000000000000000000000000000000000000002E4550F1000002454944415478DAED9CCB72C2300C00F5FFDFAAABEEA5E0676212433844D66EDB194A72401B597E0E22000000000000000000000000708E66C20A782890D74FD40C90E8029EB1C76903
310
CF949FCB8BC58BDE29CB66C0AF6F4400021080000420C0A3001BA19FE34F408A7578BD5CD2453345DF45BED3303F9B7285CDB3A600B1C1ABC1D5F90CF05B0F6DF23D04B815A008F8A21C461170B9FABB10A0D13340675AB9E5DFEFAA81B726F0FB81D09D1360C00702E6263EEE8AE0A504702DE020363BB0F4AEA8340971DB
310
49B1F631BD6A9DC9B9004B776E6F6EC25491B4A594FEB9FB90B8897F6FC0461D43B97DAC343FF6F6EFA63DE1F37376016D0DD84056953014F0BF79A67ACFBDC5E7A3C91F30E7A675F16F0CD86035244B307F45B06C7777CDD36AFC32D103B449E05240EAB66B81EE0BDB71F8F6A604F81E0976519D08D89480D29EF26B8F02
310
2C473523A0C66FB9ACA493059A52CCA3801CBF9D37812A41AC16564945D58B806FE700FB21712D28A2DB3ECFE182C885A9A0B7B9C085D9D0C2021EAD5AAD1FFFD8F8FA62B3C1F6C2C9D357595D807C2760B820E27167040112A3091CCD163E5C0B5CEC446519CA0DBBBE0007A79B10075D7F2C0179A6DC8C05220AE8C67E41
310
054860019BA1300210104E80200001080829A0EC6E76DB7B7104689DCF6AB3C31B49405EECAF7B89710494057EADEFE87EDF635901872B1C01045CBB8E000420000108702F40F3B10FDD851D444051504ED6D5D9408C0C102DC71D532A0413A0E5C06B380141BF40A59B0B1CD809FBA54A00000000000000000000000077E7
310
0F9F8CEB2887788D290000000049454E44AE4260824C069C85286EFFB92200000000000000007C911FF3F063940920B51C0000000049454E44AE42608260F27EB291030AF119BED5384551144551144551144551144575D61F7AC55995394925A70000000049454E44AE426082F4D996000880000880000880000880000880
310
0008800008E01B00443580EDF632C9B9002D00C4F86BF0DD958F92D60BE706E07E82EF20B034740090AD3E6AB67B6DE902107C9F832E0BD07787A59D05142926A2FD4E8C140A6520F903D69F5A58F6E944770000000049454E44AE426082A02079D9A6FDF71BE9FF088070D61B7C3880F3EEF0D301848A61AF6702D85F7194
310
D301013C1CC0E9B0EF3A1E505A437305000861ED10086B0238ED0B10000110000110000110000110807BFB03D554E2213223E9650000000049454E44AE426082
  0
ENDSEC
  0
EOF
