  0
SECTION
  2
HEADER
  9
$ACADVER
  1
AC1027
  9
$ACADMAINTVER
 70
   125
  9
$DWGCODEPAGE
  3
ANSI_1252
  9
$LASTSAVEDBY
  1
Guazzelli
  9
$REQUIREDVERSIONS
160
                 0
  9
$INSBASE
 10
103.2397158278418
 20
153.5639186368695
 30
0.0
  9
$EXTMIN
 10
3461.914921949787
 20
2061.880662421325
 30
0.0
  9
$EXTMAX
 10
3747.114921949787
 20
2257.580662421325
 30
0.0
  9
$LIMMIN
 10
0.0
 20
0.0
  9
$LIMMAX
 10
12.0
 20
9.0
  9
$ORTHOMODE
 70
     0
  9
$REGENMODE
 70
     1
  9
$FILLMODE
 70
     1
  9
$QTEXTMODE
 70
     0
  9
$MIRRTEXT
 70
     1
  9
$LTSCALE
 40
1.0
  9
$ATTMODE
 70
     1
  9
$TEXTSIZE
 40
0.2
  9
$TRACEWID
 40
0.05
  9
$TEXTSTYLE
  7
DIM
  9
$CLAYER
  8
标注线Ａ
  9
$CELTYPE
  6
BYLAYER
  9
$CECOLOR
 62
   256
  9
$CELTSCALE
 40
1.0
  9
$DISPSILH
 70
     0
  9
$DIMSCALE
 40
1.0
  9
$DIMASZ
 40
2.0
  9
$DIMEXO
 40
0.5
  9
$DIMDLI
 40
1.0
  9
$DIMRND
 40
0.0
  9
$DIMDLE
 40
0.0
  9
$DIMEXE
 40
1.5
  9
$DIMTP
 40
0.0
  9
$DIMTM
 40
0.0
  9
$DIMTXT
 40
2.5
  9
$DIMCEN
 40
5.0
  9
$DIMTSZ
 40
0.0
  9
$DIMTOL
 70
     0
  9
$DIMLIM
 70
     0
  9
$DIMTIH
 70
     0
  9
$DIMTOH
 70
     1
  9
$DIMSE1
 70
     0
  9
$DIMSE2
 70
     0
  9
$DIMTAD
 70
     1
  9
$DIMZIN
 70
     9
  9
$DIMBLK
  1

  9
$DIMASO
 70
     1
  9
$DIMSHO
 70
     0
  9
$DIMPOST
  1

  9
$DIMAPOST
  1

  9
$DIMALT
 70
     0
  9
$DIMALTD
 70
     2
  9
$DIMALTF
 40
1.0
  9
$DIMLFAC
 40
1.0
  9
$DIMTOFL
 70
     1
  9
$DIMTVP
 40
0.0
  9
$DIMTIX
 70
     0
  9
$DIMSOXD
 70
     0
  9
$DIMSAH
 70
     0
  9
$DIMBLK1
  1

  9
$DIMBLK2
  1

  9
$DIMSTYLE
  2
1-1
  9
$DIMCLRD
 70
     1
  9
$DIMCLRE
 70
   256
  9
$DIMCLRT
 70
     7
  9
$DIMTFAC
 40
1.0
  9
$DIMGAP
 40
0.5
  9
$DIMJUST
 70
     0
  9
$DIMSD1
 70
     0
  9
$DIMSD2
 70
     0
  9
$DIMTOLJ
 70
     1
  9
$DIMTZIN
 70
     8
  9
$DIMALTZ
 70
     0
  9
$DIMALTTZ
 70
     0
  9
$DIMUPT
 70
     1
  9
$DIMDEC
 70
     2
  9
$DIMTDEC
 70
     2
  9
$DIMALTU
 70
     2
  9
$DIMALTTD
 70
     2
  9
$DIMTXSTY
  7
DIM
  9
$DIMAUNIT
 70
     0
  9
$DIMADEC
 70
     0
  9
$DIMALTRND
 40
0.0
  9
$DIMAZIN
 70
     0
  9
$DIMDSEP
 70
    46
  9
$DIMATFIT
 70
     3
  9
$DIMFRAC
 70
     0
  9
$DIMLDRBLK
  1

  9
$DIMLUNIT
 70
     2
  9
$DIMLWD
 70
    25
  9
$DIMLWE
 70
    25
  9
$DIMTMOVE
 70
     1
  9
$DIMFXL
 40
1.0
  9
$DIMFXLON
 70
     0
  9
$DIMJOGANG
 40
1.570796326794896
  9
$DIMTFILL
 70
     0
  9
$DIMTFILLCLR
 70
     0
  9
$DIMARCSYM
 70
     0
  9
$DIMLTYPE
  6
BYLAYER
  9
$DIMLTEX1
  6
BYLAYER
  9
$DIMLTEX2
  6
BYLAYER
  9
$DIMTXTDIRECTION
 70
     0
  9
$LUNITS
 70
     2
  9
$LUPREC
 70
     4
  9
$SKETCHINC
 40
0.1
  9
$FILLETRAD
 40
2.0
  9
$AUNITS
 70
     0
  9
$AUPREC
 70
     0
  9
$MENU
  1
acad
  9
$ELEVATION
 40
0.0
  9
$PELEVATION
 40
0.0
  9
$THICKNESS
 40
0.0
  9
$LIMCHECK
 70
     0
  9
$CHAMFERA
 40
0.0
  9
$CHAMFERB
 40
0.0
  9
$CHAMFERC
 40
0.0
  9
$CHAMFERD
 40
0.0
  9
$SKPOLY
 70
     0
  9
$TDCREATE
 40
2450541.194965278
  9
$TDUCREATE
 40
2450541.319975463
  9
$TDUPDATE
 40
2459325.502685185
  9
$TDUUPDATE
 40
2459325.627685185
  9
$TDINDWG
 40
0.5020860995
  9
$TDUSRTIMER
 40
0.5020860995
  9
$USRTIMER
 70
     1
  9
$ANGBASE
 50
0.0
  9
$ANGDIR
 70
     0
  9
$PDMODE
 70
     0
  9
$PDSIZE
 40
0.0
  9
$PLINEWID
 40
0.0
  9
$SPLFRAME
 70
     0
  9
$SPLINETYPE
 70
     6
  9
$SPLINESEGS
 70
     8
  9
$HANDSEED
  5
F44B
  9
$SURFTAB1
 70
     6
  9
$SURFTAB2
 70
     6
  9
$SURFTYPE
 70
     6
  9
$SURFU
 70
     6
  9
$SURFV
 70
     6
  9
$UCSBASE
  2

  9
$UCSNAME
  2

  9
$UCSORG
 10
0.0
 20
0.0
 30
0.0
  9
$UCSXDIR
 10
1.0
 20
0.0
 30
0.0
  9
$UCSYDIR
 10
0.0
 20
1.0
 30
0.0
  9
$UCSORTHOREF
  2

  9
$UCSORTHOVIEW
 70
     0
  9
$UCSORGTOP
 10
0.0
 20
0.0
 30
0.0
  9
$UCSORGBOTTOM
 10
0.0
 20
0.0
 30
0.0
  9
$UCSORGLEFT
 10
0.0
 20
0.0
 30
0.0
  9
$UCSORGRIGHT
 10
0.0
 20
0.0
 30
0.0
  9
$UCSORGFRONT
 10
0.0
 20
0.0
 30
0.0
  9
$UCSORGBACK
 10
0.0
 20
0.0
 30
0.0
  9
$PUCSBASE
  2

  9
$PUCSNAME
  2

  9
$PUCSORG
 10
0.0
 20
0.0
 30
0.0
  9
$PUCSXDIR
 10
1.0
 20
0.0
 30
0.0
  9
$PUCSYDIR
 10
0.0
 20
1.0
 30
0.0
  9
$PUCSORTHOREF
  2

  9
$PUCSORTHOVIEW
 70
     0
  9
$PUCSORGTOP
 10
0.0
 20
0.0
 30
0.0
  9
$PUCSORGBOTTOM
 10
0.0
 20
0.0
 30
0.0
  9
$PUCSORGLEFT
 10
0.0
 20
0.0
 30
0.0
  9
$PUCSORGRIGHT
 10
0.0
 20
0.0
 30
0.0
  9
$PUCSORGFRONT
 10
0.0
 20
0.0
 30
0.0
  9
$PUCSORGBACK
 10
0.0
 20
0.0
 30
0.0
  9
$USERI1
 70
     0
  9
$USERI2
 70
     0
  9
$USERI3
 70
     0
  9
$USERI4
 70
     0
  9
$USERI5
 70
     0
  9
$USERR1
 40
0.0
  9
$USERR2
 40
0.0
  9
$USERR3
 40
0.0
  9
$USERR4
 40
0.0
  9
$USERR5
 40
0.0
  9
$WORLDVIEW
 70
     1
  9
$SHADEDGE
 70
     3
  9
$SHADEDIF
 70
    70
  9
$TILEMODE
 70
     1
  9
$MAXACTVP
 70
    16
  9
$PINSBASE
 10
0.0
 20
0.0
 30
0.0
  9
$PLIMCHECK
 70
     0
  9
$PEXTMIN
 10
1.000000000000000E+20
 20
1.000000000000000E+20
 30
1.000000000000000E+20
  9
$PEXTMAX
 10
-1.000000000000000E+20
 20
-1.000000000000000E+20
 30
-1.000000000000000E+20
  9
$PLIMMIN
 10
0.0
 20
0.0
  9
$PLIMMAX
 10
12.0
 20
9.0
  9
$UNITMODE
 70
     0
  9
$VISRETAIN
 70
     0
  9
$PLINEGEN
 70
     0
  9
$PSLTSCALE
 70
     0
  9
$TREEDEPTH
 70
  3020
  9
$CMLSTYLE
  2
STANDARD
  9
$CMLJUST
 70
     0
  9
$CMLSCALE
 40
1.0
  9
$PROXYGRAPHICS
 70
     1
  9
$MEASUREMENT
 70
     0
  9
$CELWEIGHT
370
    -1
  9
$ENDCAPS
280
     0
  9
$JOINSTYLE
280
     0
  9
$LWDISPLAY
290
     0
  9
$INSUNITS
 70
     0
  9
$HYPERLINKBASE
  1

  9
$STYLESHEET
  1
monochrome.ctb
  9
$XEDIT
290
     1
  9
$CEPSNTYPE
380
     0
  9
$PSTYLEMODE
290
     1
  9
$FINGERPRINTGUID
  2
{52CF707B-B191-46C7-9B5E-AD4A2B2141D6}
  9
$VERSIONGUID
  2
{EF836DB3-9B6D-5140-AAF7-562E373050BE}
  9
$EXTNAMES
290
     1
  9
$PSVPSCALE
 40
0.0
  9
$OLESTARTUP
290
     0
  9
$SORTENTS
280
   127
  9
$INDEXCTL
280
     0
  9
$HIDETEXT
280
     0
  9
$XCLIPFRAME
280
     0
  9
$HALOGAP
280
     0
  9
$OBSCOLOR
 70
   257
  9
$OBSLTYPE
280
     0
  9
$INTERSECTIONDISPLAY
280
     0
  9
$INTERSECTIONCOLOR
 70
   257
  9
$DIMASSOC
280
     1
  9
$PROJECTNAME
  1

  9
$CAMERADISPLAY
290
     0
  9
$LENSLENGTH
 40
50.0
  9
$CAMERAHEIGHT
 40
0.0
  9
$STEPSPERSEC
 40
2.0
  9
$STEPSIZE
 40
6.0
  9
$3DDWFPREC
 40
2.0
  9
$PSOLWIDTH
 40
0.25
  9
$PSOLHEIGHT
 40
4.0
  9
$LOFTANG1
 40
1.570796326794896
  9
$LOFTANG2
 40
1.570796326794896
  9
$LOFTMAG1
 40
0.0
  9
$LOFTMAG2
 40
0.0
  9
$LOFTPARAM
 70
     7
  9
$LOFTNORMALS
280
     1
  9
$LATITUDE
 40
37.795
  9
$LONGITUDE
 40
-122.394
  9
$NORTHDIRECTION
 40
0.0
  9
$TIMEZONE
 70
 -8000
  9
$LIGHTGLYPHDISPLAY
280
     1
  9
$TILEMODELIGHTSYNCH
280
     1
  9
$CMATERIAL
347
17E
  9
$SOLIDHIST
280
     1
  9
$SHOWHIST
280
     1
  9
$DWFFRAME
280
     2
  9
$DGNFRAME
280
     0
  9
$REALWORLDSCALE
290
     1
  9
$INTERFERECOLOR
 62
     1
  9
$INTERFEREOBJVS
345
18B
  9
$INTERFEREVPVS
346
188
  9
$CSHADOW
280
     0
  9
$SHADOWPLANELOCATION
 40
0.0
  0
ENDSEC
  0
SECTION
  2
CLASSES
  0
CLASS
  1
DICTIONARYVAR
  2
AcDbDictionaryVar
  3
ObjectDBX Classes
 90
        0
 91
       10
280
     0
281
     0
  0
CLASS
  1
ACDBDICTIONARYWDFLT
  2
AcDbDictionaryWithDefault
  3
ObjectDBX Classes
 90
        0
 91
        1
280
     0
281
     0
  0
CLASS
  1
MATERIAL
  2
AcDbMaterial
  3
ObjectDBX Classes
 90
     1153
 91
        3
280
     0
281
     0
  0
CLASS
  1
VISUALSTYLE
  2
AcDbVisualStyle
  3
ObjectDBX Classes
 90
     4095
 91
       26
280
     0
281
     0
  0
CLASS
  1
TABLESTYLE
  2
AcDbTableStyle
  3
ObjectDBX Classes
 90
     4095
 91
        1
280
     0
281
     0
  0
CLASS
  1
SORTENTSTABLE
  2
AcDbSortentsTable
  3
ObjectDBX Classes
 90
        0
 91
        2
280
     0
281
     0
  0
CLASS
  1
DIMASSOC
  2
AcDbDimAssoc
  3
"AcDbDimAssoc|Product Desc:     AcDim ARX App For Dimension|Company:          Autodesk, Inc.|WEB Address:      www.autodesk.com"
 90
        0
 91
        0
280
     0
281
     0
  0
CLASS
  1
SCALE
  2
AcDbScale
  3
ObjectDBX Classes
 90
     1153
 91
       17
280
     0
281
     0
  0
CLASS
  1
MLEADERSTYLE
  2
AcDbMLeaderStyle
  3
ACDB_MLEADERSTYLE_CLASS
 90
     4095
 91
        1
280
     0
281
     0
  0
CLASS
  1
ACDBSECTIONVIEWSTYLE
  2
AcDbSectionViewStyle
  3
ObjectDBX Classes
 90
     1025
 91
        1
280
     0
281
     0
  0
CLASS
  1
ACDBDETAILVIEWSTYLE
  2
AcDbDetailViewStyle
  3
ObjectDBX Classes
 90
     1025
 91
        1
280
     0
281
     0
  0
CLASS
  1
CELLSTYLEMAP
  2
AcDbCellStyleMap
  3
ObjectDBX Classes
 90
     1152
 91
        1
280
     0
281
     0
  0
ENDSEC
  0
SECTION
  2
TABLES
  0
TABLE
  2
VPORT
  5
12
330
0
100
AcDbSymbolTable
 70
     1
1001
ACAD
1000
DbSaveVer
1071
      224
  0
VPORT
  5
17C
330
12
100
AcDbSymbolTableRecord
100
AcDbViewportTableRecord
  2
*Active
 70
     0
 10
0.0
 20
0.0
 11
1.0
 21
1.0
 12
3701.226448440053
 22
2143.372890326808
 13
0.0
 23
0.0
 14
1.0
 24
1.0
 15
0.0
 25
0.0
 16
0.0
 26
0.0
 36
1.0
 17
0.0
 27
0.0
 37
0.0
 40
339.4471932825735
 41
1.865407319952774
 42
50.0
 43
0.0
 44
0.0
 50
0.0
 51
0.0
 71
     0
 72
   100
 73
     1
 74
     1
 75
     0
 76
     0
 77
     0
 78
     0
281
     0
 65
     1
110
0.0
120
0.0
130
0.0
111
1.0
121
0.0
131
0.0
112
0.0
122
1.0
132
0.0
 79
     0
146
0.0
348
187
 60
     3
 61
     5
292
     1
282
     1
141
0.0
142
0.0
 63
   250
421
  3355443
1001
ACAD_NAV_VCDISPLAY
1070
     3
  0
ENDTAB
  0
TABLE
  2
LTYPE
  5
D
330
0
100
AcDbSymbolTable
 70
     4
  0
LTYPE
  5
E
330
D
100
AcDbSymbolTableRecord
100
AcDbLinetypeTableRecord
  2
BYBLOCK
 70
     0
  3

 72
    65
 73
     0
 40
0.0
  0
LTYPE
  5
F
330
D
100
AcDbSymbolTableRecord
100
AcDbLinetypeTableRecord
  2
BYLAYER
 70
     0
  3

 72
    65
 73
     0
 40
0.0
  0
LTYPE
  5
5
330
D
100
AcDbSymbolTableRecord
100
AcDbLinetypeTableRecord
  2
CONTINUOUS
 70
     0
  3
Solid line
 72
    65
 73
     0
 40
0.0
  0
LTYPE
  5
82
330
D
100
AcDbSymbolTableRecord
100
AcDbLinetypeTableRecord
  2
CENTER2
 70
     0
  3
Center (.5x) ___ _ ___ _ ___ _ ___ _ ___ _ ___
 72
    65
 73
     4
 40
28.575
 49
19.05
 74
     0
 49
-3.174999999999999
 74
     0
 49
3.174999999999999
 74
     0
 49
-3.174999999999999
 74
     0
  0
LTYPE
  5
25D
330
D
100
AcDbSymbolTableRecord
100
AcDbLinetypeTableRecord
  2
CENTER
 70
     0
  3
Center ____ _ ____ _ ____ _ ____ _ ____ _ ____
 72
    65
 73
     4
 40
2.0
 49
1.25
 74
     0
 49
-0.25
 74
     0
 49
0.25
 74
     0
 49
-0.25
 74
     0
  0
LTYPE
  5
871
330
D
100
AcDbSymbolTableRecord
100
AcDbLinetypeTableRecord
  2
HIDDEN
 70
     0
  3
- - - - - - - - - - - - - - - - - - - -
 72
    65
 73
     2
 40
0.2
 49
0.1
 74
     0
 49
-0.1
 74
     0
  0
ENDTAB
  0
TABLE
  2
LAYER
  5
A
102
{ACAD_XDICTIONARY
360
114F
102
}
330
0
100
AcDbSymbolTable
 70
    19
  0
LAYER
  5
4
102
{ACAD_XDICTIONARY
360
F429
102
}
330
A
100
AcDbSymbolTableRecord
100
AcDbLayerTableRecord
  2
0
 70
     0
 62
     7
  6
CONTINUOUS
370
    -3
390
CC
347
180
348
0
  0
LAYER
  5
21
102
{ACAD_XDICTIONARY
360
F42B
102
}
330
A
100
AcDbSymbolTableRecord
100
AcDbLayerTableRecord
  2
XSX
 70
     0
 62
     1
  6
CONTINUOUS
370
    -3
390
CC
347
180
348
0
  0
LAYER
  5
1F
102
{ACAD_XDICTIONARY
360
F42D
102
}
330
A
100
AcDbSymbolTableRecord
100
AcDbLayerTableRecord
  2
CSX
 70
     0
 62
     7
  6
CONTINUOUS
370
    -3
390
CC
347
180
348
0
  0
LAYER
  5
83
102
{ACAD_XDICTIONARY
360
F42F
102
}
330
A
100
AcDbSymbolTableRecord
100
AcDbLayerTableRecord
  2
DIM
 70
     0
 62
     4
  6
CONTINUOUS
370
    -3
390
CC
347
180
348
0
  0
LAYER
  5
84
102
{ACAD_XDICTIONARY
360
F431
102
}
330
A
100
AcDbSymbolTableRecord
100
AcDbLayerTableRecord
  2
CENTER
 70
     0
 62
     1
  6
CENTER2
370
    -3
390
CC
347
180
348
0
  0
LAYER
  5
B5
330
A
100
AcDbSymbolTableRecord
100
AcDbLayerTableRecord
  2
DEFPOINTS
 70
     0
 62
     7
  6
CONTINUOUS
290
     0
370
    -3
390
CC
347
180
348
0
  0
LAYER
  5
14F
102
{ACAD_XDICTIONARY
360
F433
102
}
330
A
100
AcDbSymbolTableRecord
100
AcDbLayerTableRecord
  2
LAYER1
 70
     0
 62
     2
  6
CONTINUOUS
370
    -3
390
CC
347
180
348
0
  0
LAYER
  5
25E
102
{ACAD_XDICTIONARY
360
F435
102
}
330
A
100
AcDbSymbolTableRecord
100
AcDbLayerTableRecord
  2
CENT
 70
     0
 62
     2
  6
CENTER
370
    -3
390
CC
347
180
348
0
  0
LAYER
  5
3D74
102
{ACAD_XDICTIONARY
360
3D75
102
}
330
A
100
AcDbSymbolTableRecord
100
AcDbLayerTableRecord
  2
细实线Ａ
 70
     0
 62
     7
  6
CONTINUOUS
370
    20
390
CC
347
180
348
0
1001
AcadStringInfo
1000
MIFCodePage
1070
     5
  0
LAYER
  5
3D77
102
{ACAD_XDICTIONARY
360
3D78
102
}
330
A
100
AcDbSymbolTableRecord
100
AcDbLayerTableRecord
  2
剖面线Ａ
 70
     0
 62
     7
  6
CONTINUOUS
370
    15
390
CC
347
180
348
0
1001
AcAecLayerStandard
1000

1000
　
1001
AcadStringInfo
1000
MIFCodePage
1070
     5
  0
LAYER
  5
3D7A
102
{ACAD_XDICTIONARY
360
3D7B
102
}
330
A
100
AcDbSymbolTableRecord
100
AcDbLayerTableRecord
  2
中心线Ａ
 70
     0
 62
    10
  6
CENTER
370
    25
390
CC
347
180
348
0
1001
AcAecLayerStandard
1000

1000

1001
AcadStringInfo
1000
MIFCodePage
1070
     5
  0
LAYER
  5
3D7D
102
{ACAD_XDICTIONARY
360
3D7E
102
}
330
A
100
AcDbSymbolTableRecord
100
AcDbLayerTableRecord
  2
粗实线Ａ
 70
     0
 62
     7
  6
CONTINUOUS
370
    30
390
CC
347
180
348
0
1001
AcAecLayerStandard
1000

1000

1001
AcadStringInfo
1000
MIFCodePage
1070
     5
  0
LAYER
  5
3D80
102
{ACAD_XDICTIONARY
360
F437
102
}
330
A
100
AcDbSymbolTableRecord
100
AcDbLayerTableRecord
  2
标注线Ａ
 70
     0
 62
    82
  6
CONTINUOUS
370
    25
390
CC
347
180
348
0
1001
AcAecLayerStandard
1000

1000

1001
AcadStringInfo
1000
MIFCodePage
1070
     5
  0
LAYER
  5
3D81
102
{ACAD_XDICTIONARY
360
3D82
102
}
330
A
100
AcDbSymbolTableRecord
100
AcDbLayerTableRecord
  2
粗实线
 70
     0
 62
     7
  6
CONTINUOUS
370
    30
390
CC
347
180
348
0
1001
AcAecLayerStandard
1000

1000

1001
AcadStringInfo
1000
MIFCodePage
1070
     5
  0
LAYER
  5
3D84
102
{ACAD_XDICTIONARY
360
3D85
102
}
330
A
100
AcDbSymbolTableRecord
100
AcDbLayerTableRecord
  2
细
 70
     0
 62
     7
  6
CONTINUOUS
370
    13
390
CC
347
180
348
0
1001
AcadStringInfo
1000
MIFCodePage
1070
     5
  0
LAYER
  5
3D87
102
{ACAD_XDICTIONARY
360
3D88
102
}
330
A
100
AcDbSymbolTableRecord
100
AcDbLayerTableRecord
  2
中心线
 70
     0
 62
    10
  6
CENTER
370
    25
390
CC
347
180
348
0
1001
AcAecLayerStandard
1000

1000

1001
AcadStringInfo
1000
MIFCodePage
1070
     5
  0
LAYER
  5
B594
102
{ACAD_XDICTIONARY
360
F439
102
}
330
A
100
AcDbSymbolTableRecord
100
AcDbLayerTableRecord
  2
杯注线
 70
     0
 62
     1
  6
CONTINUOUS
370
    20
390
CC
347
180
348
0
1001
AcAecLayerStandard
1000

1000

1001
AcadStringInfo
1000
MIFCodePage
1070
     5
  0
LAYER
  5
C679
102
{ACAD_XDICTIONARY
360
C67A
102
}
330
A
100
AcDbSymbolTableRecord
100
AcDbLayerTableRecord
  2
标注线
 70
     0
 62
     3
  6
CONTINUOUS
370
    20
390
CC
347
180
348
0
1001
AcadStringInfo
1000
MIFCodePage
1070
     5
  0
LAYER
  5
CB81
102
{ACAD_XDICTIONARY
360
CB82
102
}
330
A
100
AcDbSymbolTableRecord
100
AcDbLayerTableRecord
  2
11
 70
     0
 62
     7
  6
CONTINUOUS
370
    30
390
CC
347
180
348
0
1001
AcAecLayerStandard
1000

1000

  0
ENDTAB
  0
TABLE
  2
STYLE
  5
B
330
0
100
AcDbSymbolTable
 70
     7
  0
STYLE
  5
C
330
B
100
AcDbSymbolTableRecord
100
AcDbTextStyleTableRecord
  2
STANDARD
 70
     0
 40
0.0
 41
1.0
 50
0.0
 71
     0
 42
0.2
  3
txt
  4

  0
STYLE
  5
1B
330
B
100
AcDbSymbolTableRecord
100
AcDbTextStyleTableRecord
  2
HZ
 70
     0
 40
0.0
 41
0.75
 50
0.0
 71
     0
 42
4.5
  3
SimSun.ttf
  4

1001
ACAD
1000
SimSun
1071
    34306
  0
STYLE
  5
25F
330
B
100
AcDbSymbolTableRecord
100
AcDbTextStyleTableRecord
  2
DIM
 70
     0
 40
0.0
 41
0.7
 50
5.0
 71
     0
 42
0.2
  3
romand.shx
  4

  0
STYLE
  5
14D7
330
B
100
AcDbSymbolTableRecord
100
AcDbTextStyleTableRecord
  2
TXT
 70
     0
 40
0.0
 41
0.7
 50
5.0
 71
     0
 42
0.2
  3
simfang_1.ttf
  4

1001
ACAD
1000
仿宋_GB2312
1071
    34353
  0
STYLE
  5
3D8A
330
B
100
AcDbSymbolTableRecord
100
AcDbTextStyleTableRecord
  2
LZW宋体-3.0
 70
     0
 40
3.0
 41
1.0
 50
0.0
 71
     0
 42
2.5
  3
SimSun.ttf
  4

1001
ACAD
1000
SimSun
1071
    34306
1001
AcadStringInfo
1000
MIFCodePage
1070
     5
  0
STYLE
  5
3D8B
330
B
100
AcDbSymbolTableRecord
100
AcDbTextStyleTableRecord
  2
ISOCP
 70
     0
 40
0.0
 41
1.0
 50
0.0
 71
     0
 42
2.5
  3
simfang_1.ttf
  4

1001
ACAD
1000
仿宋_GB2312
1071
    34353
  0
STYLE
  5
3D8C
330
B
100
AcDbSymbolTableRecord
100
AcDbTextStyleTableRecord
  2
LZW楷书-3.0
 70
     0
 40
3.0
 41
1.0
 50
0.0
 71
     0
 42
3.0
  3
simkai_1.ttf
  4

1001
ACAD
1000
KaiTi_GB2312
1071
    34353
1001
AcadStringInfo
1000
MIFCodePage
1070
     5
  0
ENDTAB
  0
TABLE
  2
VIEW
  5
10
330
0
100
AcDbSymbolTable
 70
     0
  0
ENDTAB
  0
TABLE
  2
UCS
  5
11
330
0
100
AcDbSymbolTable
 70
     0
  0
ENDTAB
  0
TABLE
  2
APPID
  5
14
330
0
100
AcDbSymbolTable
 70
    11
  0
APPID
  5
15
330
14
100
AcDbSymbolTableRecord
100
AcDbRegAppTableRecord
  2
ACAD
 70
     0
  0
APPID
  5
F0
330
14
100
AcDbSymbolTableRecord
100
AcDbRegAppTableRecord
  2
DCO15
 70
     0
  0
APPID
  5
79E
330
14
100
AcDbSymbolTableRecord
100
AcDbRegAppTableRecord
  2
ACAD_EXEMPT_FROM_CAD_STANDARDS
 70
     0
  0
APPID
  5
872
330
14
100
AcDbSymbolTableRecord
100
AcDbRegAppTableRecord
  2
ACAD_PSEXT
 70
     0
  0
APPID
  5
1DE5
330
14
100
AcDbSymbolTableRecord
100
AcDbRegAppTableRecord
  2
ACAD_DSTYLE_DIMRADIAL_EXTENSION
 70
     0
  0
APPID
  5
3D93
330
14
100
AcDbSymbolTableRecord
100
AcDbRegAppTableRecord
  2
AcAecLayerStandard
 70
     0
  0
APPID
  5
3D94
330
14
100
AcDbSymbolTableRecord
100
AcDbRegAppTableRecord
  2
ACAD_DSTYLE_DIMJAG
 70
     0
  0
APPID
  5
3D95
330
14
100
AcDbSymbolTableRecord
100
AcDbRegAppTableRecord
  2
ACAD_DSTYLE_DIMTALN
 70
     0
  0
APPID
  5
3D96
330
14
100
AcDbSymbolTableRecord
100
AcDbRegAppTableRecord
  2
ACAD_DSTYLE_DIMJOGGED_JOGANGLE_SYMBOL
 70
     0
  0
APPID
  5
F41E
330
14
100
AcDbSymbolTableRecord
100
AcDbRegAppTableRecord
  2
AcadStringInfo
 70
     0
  0
APPID
  5
F443
330
14
100
AcDbSymbolTableRecord
100
AcDbRegAppTableRecord
  2
ACAD_NAV_VCDISPLAY
 70
     0
  0
ENDTAB
  0
TABLE
  2
DIMSTYLE
  5
16
330
0
100
AcDbSymbolTable
 70
    11
100
AcDbDimStyleTable
 71
     2
340
3D8D
340
1D
  0
DIMSTYLE
105
1D
330
16
100
AcDbSymbolTableRecord
100
AcDbDimStyleTableRecord
  2
STANDARD
 70
     0
340
C
  0
DIMSTYLE
105
3D8D
102
{ACAD_REACTORS
330
EF32
330
EF3F
330
EF4C
102
}
330
16
100
AcDbSymbolTableRecord
100
AcDbDimStyleTableRecord
  2
1-1
 70
     0
 41
2.0
 42
0.5
 43
1.0
 44
1.5
 50
90.0
 73
     0
 77
     1
 78
     9
140
2.5
141
5.0
143
1.0
147
0.5
172
     1
176
     1
177
   256
178
     7
271
     2
272
     2
279
     1
284
     8
288
     1
340
25F
345
F
346
F
347
F
371
    25
372
    25
1001
ACAD_DSTYLE_DIMJAG
1070
   388
1040
1.5
1001
ACAD_DSTYLE_DIMTALN
1070
   392
1070
     0
1001
ACAD_DSTYLE_DIMJOGGED_JOGANGLE_SYMBOL
1070
   384
1040
1.570796326794896
  0
DIMSTYLE
105
3D8E
330
16
100
AcDbSymbolTableRecord
100
AcDbDimStyleTableRecord
  2
2-1
 70
     0
 41
3.0
 42
0.5
 43
1.0
 44
3.5
 73
     0
 77
     1
 78
     8
140
3.0
141
5.0
144
0.5
147
0.626
172
     1
176
     1
177
     3
178
     7
271
     2
272
     2
279
     1
284
     8
340
25F
345
F
346
F
347
F
371
    20
372
    20
1001
ACAD_DSTYLE_DIMJAG
1070
   388
1040
1.5
1001
ACAD_DSTYLE_DIMTALN
1070
   392
1070
     0
  0
DIMSTYLE
105
3D8F
330
16
100
AcDbSymbolTableRecord
100
AcDbDimStyleTableRecord
  2
5-1
 70
     0
 41
3.5
 42
1.0
 43
2.0
 44
3.0
 78
     8
140
4.0
141
0.0
144
0.2
147
0.626
176
     3
177
     1
178
     7
271
     2
272
     2
279
     1
284
     8
340
25F
371
    20
372
    20
  0
DIMSTYLE
105
3D90
330
16
100
AcDbSymbolTableRecord
100
AcDbDimStyleTableRecord
  2
1-5
 70
     0
 41
2.0
 42
0.3
 43
2.0
 44
2.0
 78
     8
140
2.0
141
0.0
144
5.0
147
0.626
174
     1
176
   256
177
     7
178
     7
271
     2
272
     2
284
     8
288
     1
340
25F
372
    13
  0
DIMSTYLE
105
3D91
330
16
100
AcDbSymbolTableRecord
100
AcDbDimStyleTableRecord
  2
1-2
 70
     0
 41
1.8
 42
0.3
 43
0.3
 44
1.0
 50
90.0
 73
     0
 77
     1
 78
     8
140
2.0
141
2.5
144
2.0
147
0.3
176
     3
177
     1
178
     7
271
     2
272
     2
279
     1
284
     8
288
     1
340
25F
345
F
346
F
347
F
371
    25
372
    25
1001
ACAD_DSTYLE_DIMJOGGED_JOGANGLE_SYMBOL
1070
   384
1040
1.570796326794896
  0
DIMSTYLE
105
3D92
330
16
100
AcDbSymbolTableRecord
100
AcDbDimStyleTableRecord
  2
1-4
 70
     0
 41
2.5
 42
0.3
 43
0.8
 44
2.0
 78
     8
140
2.5
141
0.0
144
2.5
147
0.626
174
     1
176
     3
177
     1
178
     7
271
     2
272
     2
284
     8
288
     1
340
25F
371
    20
372
    20
  0
DIMSTYLE
105
C67C
330
16
100
AcDbSymbolTableRecord
100
AcDbDimStyleTableRecord
  2
1-2.5
 70
     0
 41
1.8
 42
0.3
 43
0.8
 44
1.0
 73
     0
 74
     0
 77
     1
 78
     8
140
2.0
141
0.0
144
2.5
147
0.626
176
     3
177
     1
178
     7
271
     2
272
     2
279
     1
284
     8
288
     1
340
25F
371
    20
372
    20
  0
DIMSTYLE
105
E8EA
330
16
100
AcDbSymbolTableRecord
100
AcDbDimStyleTableRecord
  2
1-10
 70
     0
 41
2.5
 42
0.3
 43
6.0
 44
1.0
 73
     0
 74
     0
 77
     1
 78
     8
140
2.5
141
2.5
144
10.0
147
0.626
176
     1
177
     3
178
     7
271
     2
272
     2
284
     8
340
25F
  0
DIMSTYLE
105
E8EB
330
16
100
AcDbSymbolTableRecord
100
AcDbDimStyleTableRecord
  2
1
 70
     0
 41
2.5
 42
0.3
 43
6.0
 44
1.0
 73
     0
 74
     0
 77
     1
 78
     8
140
2.5
141
2.5
147
0.626
176
     1
177
     3
178
     7
271
     2
272
     2
284
     8
340
25F
  0
DIMSTYLE
105
E8EC
330
16
100
AcDbSymbolTableRecord
100
AcDbDimStyleTableRecord
  2
ISO-25
 70
     0
 41
2.5
 42
0.0
 43
3.75
 44
0.7
 73
     0
 74
     0
 77
     1
 78
     8
140
2.5
141
0.1
143
0.03937007874016
147
0.625
171
     3
172
     1
178
     7
271
     2
272
     2
274
     3
283
     0
284
     8
340
25F
371
    13
372
    13
  0
ENDTAB
  0
TABLE
  2
BLOCK_RECORD
  5
1
330
0
100
AcDbSymbolTable
 70
    46
  0
BLOCK_RECORD
  5
2
102
{ACAD_XDICTIONARY
360
5B7
102
}
330
1
100
AcDbSymbolTableRecord
100
AcDbBlockTableRecord
  2
*MODEL_SPACE
340
CF
 70
     0
280
     1
281
     0
  0
BLOCK_RECORD
  5
7
330
1
100
AcDbSymbolTableRecord
100
AcDbBlockTableRecord
  2
*PAPER_SPACE
340
D0
 70
     0
280
     1
281
     0
  0
BLOCK_RECORD
  5
166
330
1
100
AcDbSymbolTableRecord
100
AcDbBlockTableRecord
  2
_Oblique
340
0
 70
     0
280
     1
281
     0
  0
BLOCK_RECORD
  5
640
330
1
100
AcDbSymbolTableRecord
100
AcDbBlockTableRecord
  2
*D1
340
0
 70
     0
280
     1
281
     0
  0
BLOCK_RECORD
  5
64C
330
1
100
AcDbSymbolTableRecord
100
AcDbBlockTableRecord
  2
*D2
340
0
 70
     0
280
     1
281
     0
  0
BLOCK_RECORD
  5
658
330
1
100
AcDbSymbolTableRecord
100
AcDbBlockTableRecord
  2
*D3
340
0
 70
     0
280
     1
281
     0
  0
BLOCK_RECORD
  5
666
330
1
100
AcDbSymbolTableRecord
100
AcDbBlockTableRecord
  2
*D4
340
0
 70
     0
280
     1
281
     0
  0
BLOCK_RECORD
  5
672
330
1
100
AcDbSymbolTableRecord
100
AcDbBlockTableRecord
  2
*D5
340
0
 70
     0
280
     1
281
     0
  0
BLOCK_RECORD
  5
680
330
1
100
AcDbSymbolTableRecord
100
AcDbBlockTableRecord
  2
*D6
340
0
 70
     0
280
     1
281
     0
  0
BLOCK_RECORD
  5
68E
330
1
100
AcDbSymbolTableRecord
100
AcDbBlockTableRecord
  2
*D7
340
0
 70
     0
280
     1
281
     0
  0
BLOCK_RECORD
  5
69A
330
1
100
AcDbSymbolTableRecord
100
AcDbBlockTableRecord
  2
*D8
340
0
 70
     0
280
     1
281
     0
  0
BLOCK_RECORD
  5
6A6
330
1
100
AcDbSymbolTableRecord
100
AcDbBlockTableRecord
  2
*D9
340
0
 70
     0
280
     1
281
     0
  0
BLOCK_RECORD
  5
6B2
330
1
100
AcDbSymbolTableRecord
100
AcDbBlockTableRecord
  2
*D10
340
0
 70
     0
280
     1
281
     0
  0
BLOCK_RECORD
  5
6BF
330
1
100
AcDbSymbolTableRecord
100
AcDbBlockTableRecord
  2
*D11
340
0
 70
     0
280
     1
281
     0
  0
BLOCK_RECORD
  5
6CD
330
1
100
AcDbSymbolTableRecord
100
AcDbBlockTableRecord
  2
*D12
340
0
 70
     0
280
     1
281
     0
  0
BLOCK_RECORD
  5
6D9
330
1
100
AcDbSymbolTableRecord
100
AcDbBlockTableRecord
  2
*D13
340
0
 70
     0
280
     1
281
     0
  0
BLOCK_RECORD
  5
6E7
330
1
100
AcDbSymbolTableRecord
100
AcDbBlockTableRecord
  2
*D14
340
0
 70
     0
280
     1
281
     0
  0
BLOCK_RECORD
  5
6F5
330
1
100
AcDbSymbolTableRecord
100
AcDbBlockTableRecord
  2
*D15
340
0
 70
     0
280
     1
281
     0
  0
BLOCK_RECORD
  5
701
330
1
100
AcDbSymbolTableRecord
100
AcDbBlockTableRecord
  2
A$C21337F74
340
0
 70
     0
280
     1
281
     0
  0
BLOCK_RECORD
  5
3013
330
1
100
AcDbSymbolTableRecord
100
AcDbBlockTableRecord
  2
GG
340
0
310
2800000020000000200000000100080000000000000400000000000000000000000000000000000000000000000080000080000000808000800000008000800080800000C0C0C000C0DCC000F0CAA6000020400000206000002080000020A0000020C0000020E00000400000004020000040400000406000004080000040A0
310
000040C0000040E00000600000006020000060400000606000006080000060A0000060C0000060E00000800000008020000080400000806000008080000080A0000080C0000080E00000A0000000A0200000A0400000A0600000A0800000A0A00000A0C00000A0E00000C0000000C0200000C0400000C0600000C0800000C0
310
A00000C0C00000C0E00000E0000000E0200000E0400000E0600000E0800000E0A00000E0C00000E0E00040000000400020004000400040006000400080004000A0004000C0004000E00040200000402020004020400040206000402080004020A0004020C0004020E000404000004040200040404000404060004040800040
310
40A0004040C0004040E00040600000406020004060400040606000406080004060A0004060C0004060E00040800000408020004080400040806000408080004080A0004080C0004080E00040A0000040A0200040A0400040A0600040A0800040A0A00040A0C00040A0E00040C0000040C0200040C0400040C0600040C08000
310
40C0A00040C0C00040C0E00040E0000040E0200040E0400040E0600040E0800040E0A00040E0C00040E0E00080000000800020008000400080006000800080008000A0008000C0008000E00080200000802020008020400080206000802080008020A0008020C0008020E00080400000804020008040400080406000804080
310
008040A0008040C0008040E00080600000806020008060400080606000806080008060A0008060C0008060E00080800000808020008080400080806000808080008080A0008080C0008080E00080A0000080A0200080A0400080A0600080A0800080A0A00080A0C00080A0E00080C0000080C0200080C0400080C0600080C0
310
800080C0A00080C0C00080C0E00080E0000080E0200080E0400080E0600080E0800080E0A00080E0C00080E0E000C0000000C0002000C0004000C0006000C0008000C000A000C000C000C000E000C0200000C0202000C0204000C0206000C0208000C020A000C020C000C020E000C0400000C0402000C0404000C0406000C0
310
408000C040A000C040C000C040E000C0600000C0602000C0604000C0606000C0608000C060A000C060C000C060E000C0800000C0802000C0804000C0806000C0808000C080A000C080C000C080E000C0A00000C0A02000C0A04000C0A06000C0A08000C0A0A000C0A0C000C0A0E000C0C00000C0C02000C0C04000C0C06000
310
C0C08000C0C0A000F0FBFF00A4A0A000808080000000FF0000FF000000FFFF00FF000000FF00FF00FFFF0000FFFFFF000000000000000000000000000000000000000000000000000000000000000000000000000000000000000000FF000000000000000000000000000000000000000000000000000000000000FF00FF00
310
00000000000000000000000000000000000000000000000000000000FF00FF00000000000000000000000000000000000000000000000000000000FF000000FF000000000000000000000000000000000000000000000000000000FF000000FF0000000000000000000000000000000000000000000000000000FF00000000
310
00FF00000000000000000000000000000000000000000000000000FF0000000000FF000000000000000000000000000000000000000000000000FF00000000000000FF00000000000000000000000000000000000000000000FF0000000000000000FF00000000000000000000000000000000000000000000FF0000000000
310
00000000FF0000000000000000000000000000000000000000FF0000000000000000000000FF00000000000000000000000000000000000000FF0000000000000000000000FF000000000000000000000000000000000000FF00000000000000000000000000FF0000000000000000000000000000000000FF000000000000
310
00000000000000FF00000000000000000000000000000000FFFFFFFFFFFFFFFFFFFFFFFFFFFFFFFFFF00000000000000000000000000000000000000000000000000000000000000FF0000000000000000000000000000000000000000000000000000000000000000FF000000000000000000000000000000000000000000
310
00000000000000000000FF0000000000000000000000000000FFFFFFFF00000000FF0000FFFFFFFFFFFF00FF000000000000000000000000FF00000000FFFF0000FF0000FF000000000000FF000000000000000000000000000000000000FF0000000000FF00000000000000FF00000000000000000000000000000000FF00
310
000000000000FF00000000000000FF00000000000000000000000000FFFF0000000000000000FFFFFFFF00000000FF000000000000000000000000000000FFFF00000000000000000000FF00000000FF000000000000000000000000000000FF00000000000000000000FF00000000FF000000000000000000FF0000000000
310
FF0000000000FF00000000FF0000000000FF000000000000000000FFFFFFFFFF00000000000000FFFFFFFF000000000000FF0000000000000000000000000000000000000000000000000000000000000000FF00000000000000000000000000000000000000000000000000000000000000FF000000000000000000000000
310
0000000000000000000000000000000000000000FF0000000000000000000000000000000000000000000000000000000000000000000000
 70
     1
280
     1
281
     0
  0
BLOCK_RECORD
  5
EF33
330
1
100
AcDbSymbolTableRecord
100
AcDbBlockTableRecord
  2
*D27
340
0
 70
     0
280
     1
281
     0
  0
BLOCK_RECORD
  5
EF40
330
1
100
AcDbSymbolTableRecord
100
AcDbBlockTableRecord
  2
*D28
340
0
 70
     0
280
     1
281
     0
  0
BLOCK_RECORD
  5
EF4D
330
1
100
AcDbSymbolTableRecord
100
AcDbBlockTableRecord
  2
*D29
340
0
 70
     0
280
     1
281
     0
  0
BLOCK_RECORD
  5
EF82
330
1
100
AcDbSymbolTableRecord
100
AcDbBlockTableRecord
  2
*D30
340
0
 70
     0
280
     1
281
     0
  0
BLOCK_RECORD
  5
EF8E
330
1
100
AcDbSymbolTableRecord
100
AcDbBlockTableRecord
  2
*D31
340
0
 70
     0
280
     1
281
     0
  0
BLOCK_RECORD
  5
EF9C
330
1
100
AcDbSymbolTableRecord
100
AcDbBlockTableRecord
  2
*D32
340
0
 70
     0
280
     1
281
     0
  0
BLOCK_RECORD
  5
EFA8
330
1
100
AcDbSymbolTableRecord
100
AcDbBlockTableRecord
  2
*D33
340
0
 70
     0
280
     1
281
     0
  0
BLOCK_RECORD
  5
EFB4
330
1
100
AcDbSymbolTableRecord
100
AcDbBlockTableRecord
  2
*D34
340
0
 70
     0
280
     1
281
     0
  0
BLOCK_RECORD
  5
EFC0
330
1
100
AcDbSymbolTableRecord
100
AcDbBlockTableRecord
  2
*D35
340
0
 70
     0
280
     1
281
     0
  0
BLOCK_RECORD
  5
EFCC
102
{ACAD_XDICTIONARY
360
EFF8
102
}
330
1
100
AcDbSymbolTableRecord
100
AcDbBlockTableRecord
  2
A$C2CD672AE
340
0
 70
     4
280
     1
281
     0
  0
ENDTAB
  0
ENDSEC
  0
SECTION
  2
BLOCKS
  0
BLOCK
  5
3
330
2
100
AcDbEntity
  8
0
100
AcDbBlockBegin
  2
*MODEL_SPACE
 70
     0
 10
0.0
 20
0.0
 30
0.0
  3
*MODEL_SPACE
  1

  0
ENDBLK
  5
6
330
2
100
AcDbEntity
  8
0
100
AcDbBlockEnd
  0
BLOCK
  5
8
330
7
100
AcDbEntity
 67
     1
  8
0
100
AcDbBlockBegin
  2
*PAPER_SPACE
 70
     0
 10
0.0
 20
0.0
 30
0.0
  3
*PAPER_SPACE
  1

  0
ENDBLK
  5
9
330
7
100
AcDbEntity
 67
     1
  8
0
100
AcDbBlockEnd
  0
BLOCK
  5
168
330
166
100
AcDbEntity
  8
0
100
AcDbBlockBegin
  2
_Oblique
 70
     0
 10
0.0
 20
0.0
 30
0.0
  3
_Oblique
  1

  0
LINE
  5
167
330
166
100
AcDbEntity
  8
0
  6
ByBlock
 62
     0
370
    -2
100
AcDbLine
 10
-0.5
 20
-0.5
 30
0.0
 11
0.5
 21
0.5
 31
0.0
  0
ENDBLK
  5
169
330
166
100
AcDbEntity
  8
0
100
AcDbBlockEnd
  0
BLOCK
  5
641
330
640
100
AcDbEntity
  8
0
100
AcDbBlockBegin
  2
*D1
 70
     1
 10
0.0
 20
0.0
 30
0.0
  3
*D1
  1

  0
LINE
  5
642
330
640
100
AcDbEntity
  8
DIM
 62
     3
370
    -2
100
AcDbLine
 10
529.9489719702108
 20
149.231003112667
 30
0.0
 11
510.6345379367243
 21
149.231003112667
 31
0.0
  0
LINE
  5
643
330
640
100
AcDbEntity
  8
DIM
 62
     3
370
    -2
100
AcDbLine
 10
529.9489719702108
 20
131.031003112667
 30
0.0
 11
510.6345379367243
 21
131.031003112667
 31
0.0
  0
LINE
  5
644
330
640
100
AcDbEntity
  8
DIM
370
    -2
100
AcDbLine
 10
511.6345379367243
 20
146.731003112667
 30
0.0
 11
511.6345379367243
 21
133.531003112667
 31
0.0
  0
SOLID
  5
645
330
640
100
AcDbEntity
  8
DIM
100
AcDbTrace
 10
511.2178712700575
 20
146.731003112667
 30
0.0
 11
512.0512046033909
 21
146.731003112667
 31
0.0
 12
511.6345379367243
 22
149.231003112667
 32
0.0
 13
511.6345379367243
 23
149.231003112667
 33
0.0
  0
SOLID
  5
646
330
640
100
AcDbEntity
  8
DIM
100
AcDbTrace
 10
511.2178712700575
 20
133.531003112667
 30
0.0
 11
512.0512046033909
 21
133.531003112667
 31
0.0
 12
511.6345379367243
 22
131.031003112667
 32
0.0
 13
511.6345379367243
 23
131.031003112667
 33
0.0
  0
MTEXT
  5
647
330
640
100
AcDbEntity
  8
DIM
 62
     7
100
AcDbMText
 10
509.7585379367242
 20
140.1310031126671
 30
0.0
 40
2.5
 41
0.0
 46
0.0
 71
     5
 72
     1
  1
\A1;%%C18.8
  7
DIM
 11
0.0000000000000001
 21
1.0
 31
0.0
 73
     1
 44
1.0
  0
POINT
  5
648
330
640
100
AcDbEntity
  8
DEFPOINTS
 62
     0
100
AcDbPoint
 10
530.2489719702108
 20
149.231003112667
 30
0.0
  0
POINT
  5
649
330
640
100
AcDbEntity
  8
DEFPOINTS
 62
     0
100
AcDbPoint
 10
530.2489719702108
 20
131.031003112667
 30
0.0
  0
POINT
  5
64A
330
640
100
AcDbEntity
  8
DEFPOINTS
 62
     0
100
AcDbPoint
 10
511.6345379367243
 20
131.031003112667
 30
0.0
  0
ENDBLK
  5
64B
330
640
100
AcDbEntity
  8
0
100
AcDbBlockEnd
  0
BLOCK
  5
64D
330
64C
100
AcDbEntity
  8
0
100
AcDbBlockBegin
  2
*D2
 70
     1
 10
0.0
 20
0.0
 30
0.0
  3
*D2
  1

  0
LINE
  5
64E
330
64C
100
AcDbEntity
  8
DIM
 62
     3
370
    -2
100
AcDbLine
 10
529.9489719702108
 20
148.1310031126669
 30
0.0
 11
515.4523411169795
 21
148.1310031126669
 31
0.0
  0
LINE
  5
64F
330
64C
100
AcDbEntity
  8
DIM
 62
     3
370
    -2
100
AcDbLine
 10
529.9489719702108
 20
132.131003112667
 30
0.0
 11
515.4523411169795
 21
132.131003112667
 31
0.0
  0
LINE
  5
650
330
64C
100
AcDbEntity
  8
DIM
370
    -2
100
AcDbLine
 10
516.4523411169795
 20
145.6310031126669
 30
0.0
 11
516.4523411169795
 21
134.631003112667
 31
0.0
  0
SOLID
  5
651
330
64C
100
AcDbEntity
  8
DIM
100
AcDbTrace
 10
516.0356744503128
 20
145.6310031126669
 30
0.0
 11
516.8690077836461
 21
145.6310031126669
 31
0.0
 12
516.4523411169795
 22
148.1310031126669
 32
0.0
 13
516.4523411169795
 23
148.1310031126669
 33
0.0
  0
SOLID
  5
652
330
64C
100
AcDbEntity
  8
DIM
100
AcDbTrace
 10
516.0356744503128
 20
134.631003112667
 30
0.0
 11
516.8690077836461
 21
134.631003112667
 31
0.0
 12
516.4523411169795
 22
132.131003112667
 32
0.0
 13
516.4523411169795
 23
132.131003112667
 33
0.0
  0
MTEXT
  5
653
330
64C
100
AcDbEntity
  8
DIM
 62
     7
100
AcDbMText
 10
514.5763411169794
 20
140.1310031126671
 30
0.0
 40
2.5
 41
0.0
 46
0.0
 71
     5
 72
     1
  1
\A1;%%C16
  7
DIM
 11
0.0000000000000001
 21
1.0
 31
0.0
 73
     1
 44
1.0
  0
POINT
  5
654
330
64C
100
AcDbEntity
  8
DEFPOINTS
 62
     0
100
AcDbPoint
 10
530.2489719702108
 20
148.1310031126669
 30
0.0
  0
POINT
  5
655
330
64C
100
AcDbEntity
  8
DEFPOINTS
 62
     0
100
AcDbPoint
 10
530.2489719702108
 20
132.131003112667
 30
0.0
  0
POINT
  5
656
330
64C
100
AcDbEntity
  8
DEFPOINTS
 62
     0
100
AcDbPoint
 10
516.4523411169795
 20
132.131003112667
 30
0.0
  0
ENDBLK
  5
657
330
64C
100
AcDbEntity
  8
0
100
AcDbBlockEnd
  0
BLOCK
  5
659
330
658
100
AcDbEntity
  8
0
100
AcDbBlockBegin
  2
*D3
 70
     1
 10
0.0
 20
0.0
 30
0.0
  3
*D3
  1

  0
LINE
  5
65A
330
658
100
AcDbEntity
  8
DIM
 62
     3
370
    -2
100
AcDbLine
 10
530.0739719702108
 20
142.631003112667
 30
0.0
 11
525.9249826770127
 21
142.631003112667
 31
0.0
  0
LINE
  5
65B
330
658
100
AcDbEntity
  8
DIM
 62
     3
370
    -2
100
AcDbLine
 10
530.0739719702108
 20
137.631003112667
 30
0.0
 11
525.9249826770127
 21
137.631003112667
 31
0.0
  0
LINE
  5
65C
330
658
100
AcDbEntity
  8
DIM
370
    -2
100
AcDbLine
 10
526.9249826770127
 20
145.131003112667
 30
0.0
 11
526.9249826770127
 21
147.6310031126669
 31
0.0
  0
LINE
  5
65D
330
658
100
AcDbEntity
  8
DIM
370
    -2
100
AcDbLine
 10
526.9249826770127
 20
135.1310031126669
 30
0.0
 11
526.9249826770127
 21
132.631003112667
 31
0.0
  0
LINE
  5
65E
330
658
100
AcDbEntity
  8
DIM
370
    -2
100
AcDbLine
 10
526.9249826770127
 20
142.631003112667
 30
0.0
 11
526.9249826770127
 21
137.631003112667
 31
0.0
  0
SOLID
  5
65F
330
658
100
AcDbEntity
  8
DIM
100
AcDbTrace
 10
526.508316010346
 20
145.131003112667
 30
0.0
 11
527.3416493436793
 21
145.131003112667
 31
0.0
 12
526.9249826770127
 22
142.631003112667
 32
0.0
 13
526.9249826770127
 23
142.631003112667
 33
0.0
  0
SOLID
  5
660
330
658
100
AcDbEntity
  8
DIM
100
AcDbTrace
 10
526.508316010346
 20
135.1310031126669
 30
0.0
 11
527.3416493436793
 21
135.1310031126669
 31
0.0
 12
526.9249826770127
 22
137.631003112667
 32
0.0
 13
526.9249826770127
 23
137.631003112667
 33
0.0
  0
MTEXT
  5
661
330
658
100
AcDbEntity
  8
DIM
 62
     7
100
AcDbMText
 10
525.0489826770127
 20
140.131003112667
 30
0.0
 40
2.5
 41
0.0
 46
0.0
 71
     5
 72
     1
  1
\A1;M5
  7
DIM
 11
0.0000000000000001
 21
1.0
 31
0.0
 73
     1
 44
1.0
  0
POINT
  5
662
330
658
100
AcDbEntity
  8
DEFPOINTS
 62
     0
100
AcDbPoint
 10
530.3739719702108
 20
142.631003112667
 30
0.0
  0
POINT
  5
663
330
658
100
AcDbEntity
  8
DEFPOINTS
 62
     0
100
AcDbPoint
 10
530.3739719702108
 20
137.631003112667
 30
0.0
  0
POINT
  5
664
330
658
100
AcDbEntity
  8
DEFPOINTS
 62
     0
100
AcDbPoint
 10
526.9249826770127
 20
137.631003112667
 30
0.0
  0
ENDBLK
  5
665
330
658
100
AcDbEntity
  8
0
100
AcDbBlockEnd
  0
BLOCK
  5
667
330
666
100
AcDbEntity
  8
0
100
AcDbBlockBegin
  2
*D4
 70
     1
 10
0.0
 20
0.0
 30
0.0
  3
*D4
  1

  0
LINE
  5
668
330
666
100
AcDbEntity
  8
DIM
 62
     3
370
    -2
100
AcDbLine
 10
529.9489719702108
 20
143.6310031126669
 30
0.0
 11
520.2926483269851
 21
143.6310031126669
 31
0.0
  0
LINE
  5
669
330
666
100
AcDbEntity
  8
DIM
 62
     3
370
    -2
100
AcDbLine
 10
529.9489719702108
 20
136.631003112667
 30
0.0
 11
520.2926483269851
 21
136.631003112667
 31
0.0
  0
LINE
  5
66A
330
666
100
AcDbEntity
  8
DIM
370
    -2
100
AcDbLine
 10
521.2926483269852
 20
141.1310031126669
 30
0.0
 11
521.2926483269852
 21
139.131003112667
 31
0.0
  0
SOLID
  5
66B
330
666
100
AcDbEntity
  8
DIM
100
AcDbTrace
 10
520.8759816603185
 20
141.1310031126669
 30
0.0
 11
521.7093149936517
 21
141.1310031126669
 31
0.0
 12
521.2926483269852
 22
143.6310031126669
 32
0.0
 13
521.2926483269852
 23
143.6310031126669
 33
0.0
  0
SOLID
  5
66C
330
666
100
AcDbEntity
  8
DIM
100
AcDbTrace
 10
520.8759816603185
 20
139.131003112667
 30
0.0
 11
521.7093149936517
 21
139.131003112667
 31
0.0
 12
521.2926483269852
 22
136.631003112667
 32
0.0
 13
521.2926483269852
 23
136.631003112667
 33
0.0
  0
MTEXT
  5
66D
330
666
100
AcDbEntity
  8
DIM
 62
     7
100
AcDbMText
 10
519.4166483269851
 20
140.131003112667
 30
0.0
 40
2.5
 41
0.0
 46
0.0
 71
     5
 72
     1
  1
\A1;%%C7
  7
DIM
 11
0.0000000000000001
 21
1.0
 31
0.0
 73
     1
 44
1.0
  0
POINT
  5
66E
330
666
100
AcDbEntity
  8
DEFPOINTS
 62
     0
100
AcDbPoint
 10
530.2489719702108
 20
143.6310031126669
 30
0.0
  0
POINT
  5
66F
330
666
100
AcDbEntity
  8
DEFPOINTS
 62
     0
100
AcDbPoint
 10
530.2489719702108
 20
136.631003112667
 30
0.0
  0
POINT
  5
670
330
666
100
AcDbEntity
  8
DEFPOINTS
 62
     0
100
AcDbPoint
 10
521.2926483269852
 20
136.631003112667
 30
0.0
  0
ENDBLK
  5
671
330
666
100
AcDbEntity
  8
0
100
AcDbBlockEnd
  0
BLOCK
  5
673
330
672
100
AcDbEntity
  8
0
100
AcDbBlockBegin
  2
*D5
 70
     1
 10
0.0
 20
0.0
 30
0.0
  3
*D5
  1

  0
LINE
  5
674
330
672
100
AcDbEntity
  8
DIM
 62
     3
370
    -2
100
AcDbLine
 10
532.2489719702108
 20
129.831003112667
 30
0.0
 11
532.2489719702108
 21
125.1517558206621
 31
0.0
  0
LINE
  5
675
330
672
100
AcDbEntity
  8
DIM
 62
     3
370
    -2
100
AcDbLine
 10
530.2489719702108
 20
130.731003112667
 30
0.0
 11
530.2489719702108
 21
125.1517558206621
 31
0.0
  0
LINE
  5
676
330
672
100
AcDbEntity
  8
DIM
370
    -2
100
AcDbLine
 10
534.7489719702108
 20
126.1517558206621
 30
0.0
 11
537.2489719702108
 21
126.1517558206621
 31
0.0
  0
LINE
  5
677
330
672
100
AcDbEntity
  8
DIM
370
    -2
100
AcDbLine
 10
527.7489719702108
 20
126.1517558206621
 30
0.0
 11
522.7365782464083
 21
126.1517558206621
 31
0.0
  0
LINE
  5
678
330
672
100
AcDbEntity
  8
DIM
370
    -2
100
AcDbLine
 10
532.2489719702108
 20
126.1517558206621
 30
0.0
 11
530.2489719702108
 21
126.1517558206621
 31
0.0
  0
SOLID
  5
679
330
672
100
AcDbEntity
  8
DIM
100
AcDbTrace
 10
534.7489719702108
 20
126.5684224873287
 30
0.0
 11
534.7489719702108
 21
125.7350891539954
 31
0.0
 12
532.2489719702108
 22
126.1517558206621
 32
0.0
 13
532.2489719702108
 23
126.1517558206621
 33
0.0
  0
SOLID
  5
67A
330
672
100
AcDbEntity
  8
DIM
100
AcDbTrace
 10
527.7489719702108
 20
126.5684224873287
 30
0.0
 11
527.7489719702108
 21
125.7350891539954
 31
0.0
 12
530.2489719702108
 22
126.1517558206621
 32
0.0
 13
530.2489719702108
 23
126.1517558206621
 33
0.0
  0
MTEXT
  5
67B
330
672
100
AcDbEntity
  8
DIM
 62
     7
100
AcDbMText
 10
523.9927751083095
 20
128.0277558206621
 30
0.0
 40
2.5
 41
0.0
 46
0.0
 71
     5
 72
     1
  1
\A1;2
  7
DIM
 73
     1
 44
1.0
  0
POINT
  5
67C
330
672
100
AcDbEntity
  8
DEFPOINTS
 62
     0
100
AcDbPoint
 10
532.2489719702108
 20
130.131003112667
 30
0.0
  0
POINT
  5
67D
330
672
100
AcDbEntity
  8
DEFPOINTS
 62
     0
100
AcDbPoint
 10
530.2489719702108
 20
131.031003112667
 30
0.0
  0
POINT
  5
67E
330
672
100
AcDbEntity
  8
DEFPOINTS
 62
     0
100
AcDbPoint
 10
530.2489719702108
 20
126.1517558206621
 30
0.0
  0
ENDBLK
  5
67F
330
672
100
AcDbEntity
  8
0
100
AcDbBlockEnd
  0
BLOCK
  5
681
330
680
100
AcDbEntity
  8
0
100
AcDbBlockBegin
  2
*D6
 70
     1
 10
0.0
 20
0.0
 30
0.0
  3
*D6
  1

  0
LINE
  5
682
330
680
100
AcDbEntity
  8
DIM
 62
     3
370
    -2
100
AcDbLine
 10
536.2489719702108
 20
147.931003112667
 30
0.0
 11
536.2489719702108
 21
154.5733546925368
 31
0.0
  0
LINE
  5
683
330
680
100
AcDbEntity
  8
DIM
 62
     3
370
    -2
100
AcDbLine
 10
530.2489719702108
 20
149.531003112667
 30
0.0
 11
530.2489719702108
 21
154.5733546925368
 31
0.0
  0
LINE
  5
684
330
680
100
AcDbEntity
  8
DIM
370
    -2
100
AcDbLine
 10
538.7489719702108
 20
153.5733546925368
 30
0.0
 11
541.2489719702108
 21
153.5733546925368
 31
0.0
  0
LINE
  5
685
330
680
100
AcDbEntity
  8
DIM
370
    -2
100
AcDbLine
 10
527.7489719702108
 20
153.5733546925368
 30
0.0
 11
525.2489719702108
 21
153.5733546925368
 31
0.0
  0
LINE
  5
686
330
680
100
AcDbEntity
  8
DIM
370
    -2
100
AcDbLine
 10
536.2489719702108
 20
153.5733546925368
 30
0.0
 11
530.2489719702108
 21
153.5733546925368
 31
0.0
  0
SOLID
  5
687
330
680
100
AcDbEntity
  8
DIM
100
AcDbTrace
 10
538.7489719702108
 20
153.9900213592035
 30
0.0
 11
538.7489719702108
 21
153.1566880258702
 31
0.0
 12
536.2489719702108
 22
153.5733546925368
 32
0.0
 13
536.2489719702108
 23
153.5733546925368
 33
0.0
  0
SOLID
  5
688
330
680
100
AcDbEntity
  8
DIM
100
AcDbTrace
 10
527.7489719702108
 20
153.9900213592035
 30
0.0
 11
527.7489719702108
 21
153.1566880258702
 31
0.0
 12
530.2489719702108
 22
153.5733546925368
 32
0.0
 13
530.2489719702108
 23
153.5733546925368
 33
0.0
  0
MTEXT
  5
689
330
680
100
AcDbEntity
  8
DIM
 62
     7
100
AcDbMText
 10
533.2489719702108
 20
155.4493546925368
 30
0.0
 40
2.5
 41
0.0
 46
0.0
 71
     5
 72
     1
  1
\A1;6
  7
DIM
 73
     1
 44
1.0
  0
POINT
  5
68A
330
680
100
AcDbEntity
  8
DEFPOINTS
 62
     0
100
AcDbPoint
 10
536.2489719702108
 20
147.6310031126669
 30
0.0
  0
POINT
  5
68B
330
680
100
AcDbEntity
  8
DEFPOINTS
 62
     0
100
AcDbPoint
 10
530.2489719702108
 20
149.231003112667
 30
0.0
  0
POINT
  5
68C
330
680
100
AcDbEntity
  8
DEFPOINTS
 62
     0
100
AcDbPoint
 10
530.2489719702108
 20
153.5733546925368
 30
0.0
  0
ENDBLK
  5
68D
330
680
100
AcDbEntity
  8
0
100
AcDbBlockEnd
  0
BLOCK
  5
68F
330
68E
100
AcDbEntity
  8
0
100
AcDbBlockBegin
  2
*D7
 70
     1
 10
0.0
 20
0.0
 30
0.0
  3
*D7
  1

  0
LINE
  5
690
330
68E
100
AcDbEntity
  8
DIM
 62
     3
370
    -2
100
AcDbLine
 10
552.5489719702108
 20
150.131003112667
 30
0.0
 11
561.3283436529368
 21
150.131003112667
 31
0.0
  0
LINE
  5
691
330
68E
100
AcDbEntity
  8
DIM
 62
     3
370
    -2
100
AcDbLine
 10
552.5489719702108
 20
130.131003112667
 30
0.0
 11
561.3283436529368
 21
130.131003112667
 31
0.0
  0
LINE
  5
692
330
68E
100
AcDbEntity
  8
DIM
370
    -2
100
AcDbLine
 10
560.3283436529368
 20
147.6310031126669
 30
0.0
 11
560.3283436529368
 21
132.631003112667
 31
0.0
  0
SOLID
  5
693
330
68E
100
AcDbEntity
  8
DIM
100
AcDbTrace
 10
559.9116769862702
 20
147.6310031126669
 30
0.0
 11
560.7450103196034
 21
147.6310031126669
 31
0.0
 12
560.3283436529368
 22
150.131003112667
 32
0.0
 13
560.3283436529368
 23
150.131003112667
 33
0.0
  0
SOLID
  5
694
330
68E
100
AcDbEntity
  8
DIM
100
AcDbTrace
 10
559.9116769862702
 20
132.631003112667
 30
0.0
 11
560.7450103196034
 21
132.631003112667
 31
0.0
 12
560.3283436529368
 22
130.131003112667
 32
0.0
 13
560.3283436529368
 23
130.131003112667
 33
0.0
  0
MTEXT
  5
695
330
68E
100
AcDbEntity
  8
DIM
 62
     7
100
AcDbMText
 10
558.4523436529369
 20
140.1310031126671
 30
0.0
 40
2.5
 41
0.0
 46
0.0
 71
     5
 72
     1
  1
\A1;%%c20
  7
DIM
 11
0.0000000000000001
 21
1.0
 31
0.0
 73
     1
 44
1.0
  0
POINT
  5
696
330
68E
100
AcDbEntity
  8
DEFPOINTS
 62
     0
100
AcDbPoint
 10
552.2489719702108
 20
150.131003112667
 30
0.0
  0
POINT
  5
697
330
68E
100
AcDbEntity
  8
DEFPOINTS
 62
     0
100
AcDbPoint
 10
552.2489719702108
 20
130.131003112667
 30
0.0
  0
POINT
  5
698
330
68E
100
AcDbEntity
  8
DEFPOINTS
 62
     0
100
AcDbPoint
 10
560.3283436529368
 20
130.131003112667
 30
0.0
  0
ENDBLK
  5
699
330
68E
100
AcDbEntity
  8
0
100
AcDbBlockEnd
  0
BLOCK
  5
69B
330
69A
100
AcDbEntity
  8
0
100
AcDbBlockBegin
  2
*D8
 70
     1
 10
0.0
 20
0.0
 30
0.0
  3
*D8
  1

  0
LINE
  5
69C
330
69A
100
AcDbEntity
  8
DIM
 62
     3
370
    -2
100
AcDbLine
 10
552.2489719702108
 20
147.360465861167
 30
0.0
 11
552.2489719702108
 21
160.6202219527867
 31
0.0
  0
LINE
  5
69D
330
69A
100
AcDbEntity
  8
DIM
 62
     3
370
    -2
100
AcDbLine
 10
530.2489719702108
 20
148.431003112667
 30
0.0
 11
530.2489719702108
 21
160.6202219527867
 31
0.0
  0
LINE
  5
69E
330
69A
100
AcDbEntity
  8
DIM
370
    -2
100
AcDbLine
 10
549.7489719702108
 20
159.6202219527867
 30
0.0
 11
532.7489719702108
 21
159.6202219527867
 31
0.0
  0
SOLID
  5
69F
330
69A
100
AcDbEntity
  8
DIM
100
AcDbTrace
 10
549.7489719702108
 20
160.0368886194534
 30
0.0
 11
549.7489719702108
 21
159.20355528612
 31
0.0
 12
552.2489719702108
 22
159.6202219527867
 32
0.0
 13
552.2489719702108
 23
159.6202219527867
 33
0.0
  0
SOLID
  5
6A0
330
69A
100
AcDbEntity
  8
DIM
100
AcDbTrace
 10
532.7489719702108
 20
160.0368886194534
 30
0.0
 11
532.7489719702108
 21
159.20355528612
 31
0.0
 12
530.2489719702108
 22
159.6202219527867
 32
0.0
 13
530.2489719702108
 23
159.6202219527867
 33
0.0
  0
MTEXT
  5
6A1
330
69A
100
AcDbEntity
  8
DIM
 62
     7
100
AcDbMText
 10
541.2489719702108
 20
161.4962219527867
 30
0.0
 40
2.5
 41
0.0
 46
0.0
 71
     5
 72
     1
  1
\A1;22
  7
DIM
 73
     1
 44
1.0
  0
POINT
  5
6A2
330
69A
100
AcDbEntity
  8
DEFPOINTS
 62
     0
100
AcDbPoint
 10
552.2489719702108
 20
147.060465861167
 30
0.0
  0
POINT
  5
6A3
330
69A
100
AcDbEntity
  8
DEFPOINTS
 62
     0
100
AcDbPoint
 10
530.2489719702108
 20
148.1310031126669
 30
0.0
  0
POINT
  5
6A4
330
69A
100
AcDbEntity
  8
DEFPOINTS
 62
     0
100
AcDbPoint
 10
530.2489719702108
 20
159.6202219527867
 30
0.0
  0
ENDBLK
  5
6A5
330
69A
100
AcDbEntity
  8
0
100
AcDbBlockEnd
  0
BLOCK
  5
6A7
330
6A6
100
AcDbEntity
  8
0
100
AcDbBlockBegin
  2
*D9
 70
     1
 10
0.0
 20
0.0
 30
0.0
  3
*D9
  1

  0
LINE
  5
6A8
330
6A6
100
AcDbEntity
  8
DIM
 62
     3
370
    -2
100
AcDbLine
 10
552.2489719702108
 20
85.1141623587697
 30
0.0
 11
552.2489719702108
 21
76.58464751949162
 31
0.0
  0
LINE
  5
6A9
330
6A6
100
AcDbEntity
  8
DIM
 62
     3
370
    -2
100
AcDbLine
 10
542.2489719702107
 20
83.44098241740402
 30
0.0
 11
542.2489719702107
 21
76.58464751949162
 31
0.0
  0
LINE
  5
6AA
330
6A6
100
AcDbEntity
  8
DIM
370
    -2
100
AcDbLine
 10
549.7489719702108
 20
77.58464751949162
 30
0.0
 11
544.7489719702107
 21
77.58464751949162
 31
0.0
  0
SOLID
  5
6AB
330
6A6
100
AcDbEntity
  8
DIM
100
AcDbTrace
 10
549.7489719702108
 20
78.0013141861583
 30
0.0
 11
549.7489719702108
 21
77.16798085282495
 31
0.0
 12
552.2489719702108
 22
77.58464751949162
 32
0.0
 13
552.2489719702108
 23
77.58464751949162
 33
0.0
  0
SOLID
  5
6AC
330
6A6
100
AcDbEntity
  8
DIM
100
AcDbTrace
 10
544.7489719702107
 20
78.0013141861583
 30
0.0
 11
544.7489719702107
 21
77.16798085282495
 31
0.0
 12
542.2489719702107
 22
77.58464751949162
 32
0.0
 13
542.2489719702107
 23
77.58464751949162
 33
0.0
  0
MTEXT
  5
6AD
330
6A6
100
AcDbEntity
  8
DIM
 62
     7
100
AcDbMText
 10
547.2489719702107
 20
79.46064751949163
 30
0.0
 40
2.5
 41
0.0
 46
0.0
 71
     5
 72
     1
  1
\A1;10
  7
DIM
 73
     1
 44
1.0
  0
POINT
  5
6AE
330
6A6
100
AcDbEntity
  8
DEFPOINTS
 62
     0
100
AcDbPoint
 10
552.2489719702108
 20
85.41416235876971
 30
0.0
  0
POINT
  5
6AF
330
6A6
100
AcDbEntity
  8
DEFPOINTS
 62
     0
100
AcDbPoint
 10
542.2489719702107
 20
83.74098241740403
 30
0.0
  0
POINT
  5
6B0
330
6A6
100
AcDbEntity
  8
DEFPOINTS
 62
     0
100
AcDbPoint
 10
542.2489719702107
 20
77.58464751949162
 30
0.0
  0
ENDBLK
  5
6B1
330
6A6
100
AcDbEntity
  8
0
100
AcDbBlockEnd
  0
BLOCK
  5
6B3
330
6B2
100
AcDbEntity
  8
0
100
AcDbBlockBegin
  2
*D10
 70
     1
 10
0.0
 20
0.0
 30
0.0
  3
*D10
  1

  0
LINE
  5
6B4
330
6B2
100
AcDbEntity
  8
DIM
 62
     3
370
    -2
100
AcDbLine
 10
606.391853124346
 20
148.941257150567
 30
0.0
 11
612.7468784165333
 21
152.6103327137182
 31
0.0
  0
LINE
  5
6B5
330
6B2
100
AcDbEntity
  8
DIM
 62
     3
370
    -2
100
AcDbLine
 10
611.3918531244165
 20
140.2810031127078
 30
0.0
 11
617.7468784165573
 21
143.9500786758321
 31
0.0
  0
LINE
  5
6B6
330
6B2
100
AcDbEntity
  8
DIM
370
    -2
100
AcDbLine
 10
613.1308530127488
 20
149.9452692042571
 30
0.0
 11
615.6308530127729
 21
145.6151421852932
 31
0.0
  0
LINE
  5
6B7
330
6B2
100
AcDbEntity
  8
DIM
370
    -2
100
AcDbLine
 10
616.8808530127729
 20
143.4500786758321
 30
0.0
 11
622.0448076677493
 21
134.505846845431
 31
0.0
  0
SOLID
  5
6B8
330
6B2
100
AcDbEntity
  8
DIM
100
AcDbTrace
 10
613.4916969309922
 20
150.1536025375904
 30
0.0
 11
612.7700090945053
 21
149.7369358709238
 31
0.0
 12
611.8808530127488
 22
152.1103327137182
 32
0.0
 13
611.8808530127488
 23
152.1103327137182
 33
0.0
  0
SOLID
  5
6B9
330
6B2
100
AcDbEntity
  8
DIM
100
AcDbTrace
 10
615.9916969310163
 20
145.8234755186265
 30
0.0
 11
615.2700090945294
 21
145.4068088519599
 31
0.0
 12
616.8808530127729
 22
143.4500786758321
 32
0.0
 13
616.8808530127729
 23
143.4500786758321
 33
0.0
  0
MTEXT
  5
6BA
330
6B2
100
AcDbEntity
  8
DIM
 62
     7
100
AcDbMText
 10
622.2002253739897
 20
137.9886554818269
 30
0.0
 40
2.5
 41
0.0
 46
0.0
 71
     5
 72
     1
  1
\A1;%%c10
  7
DIM
 11
0.5000000000000004
 21
-0.8660254037844385
 31
0.0
 73
     1
 44
1.0
  0
POINT
  5
6BB
330
6B2
100
AcDbEntity
  8
DEFPOINTS
 62
     0
100
AcDbPoint
 10
606.1320455032109
 20
148.7912571505669
 30
0.0
  0
POINT
  5
6BC
330
6B2
100
AcDbEntity
  8
DEFPOINTS
 62
     0
100
AcDbPoint
 10
611.1320455032812
 20
140.1310031127076
 30
0.0
  0
POINT
  5
6BD
330
6B2
100
AcDbEntity
  8
DEFPOINTS
 62
     0
100
AcDbPoint
 10
616.880853012773
 20
143.450078675832
 30
0.0
  0
ENDBLK
  5
6BE
330
6B2
100
AcDbEntity
  8
0
100
AcDbBlockEnd
  0
BLOCK
  5
6C0
330
6BF
100
AcDbEntity
  8
0
100
AcDbBlockBegin
  2
*D11
 70
     1
 10
0.0
 20
0.0
 30
0.0
  3
*D11
  1

  0
LINE
  5
6C1
330
6BF
100
AcDbEntity
  8
DIM
 62
     3
370
    -2
100
AcDbLine
 10
605.6121725222107
 20
142.3711954915815
 30
0.0
 11
613.137359967436
 21
129.3371884999717
 31
0.0
  0
LINE
  5
6C2
330
6BF
100
AcDbEntity
  8
DIM
 62
     3
370
    -2
100
AcDbLine
 10
609.9422995410553
 20
144.8711954915315
 30
0.0
 11
617.4674869862784
 21
131.8371884999256
 31
0.0
  0
LINE
  5
6C3
330
6BF
100
AcDbEntity
  8
DIM
370
    -2
100
AcDbLine
 10
610.472296457975
 20
128.9532139037561
 30
0.0
 11
608.307232948514
 21
127.7032139037561
 31
0.0
  0
LINE
  5
6C4
330
6BF
100
AcDbEntity
  8
DIM
370
    -2
100
AcDbLine
 10
619.1325504957395
 20
133.95321390371
 30
0.0
 11
621.2976140052005
 21
135.20321390371
 31
0.0
  0
LINE
  5
6C5
330
6BF
100
AcDbEntity
  8
DIM
370
    -2
100
AcDbLine
 10
612.637359967436
 20
130.2032139037561
 30
0.0
 11
616.9674869862785
 21
132.70321390371
 31
0.0
  0
SOLID
  5
6C6
330
6BF
100
AcDbEntity
  8
DIM
100
AcDbTrace
 10
610.2639631246416
 20
129.3140578219997
 30
0.0
 11
610.6806297913083
 21
128.5923699855126
 31
0.0
 12
612.637359967436
 22
130.2032139037561
 32
0.0
 13
612.637359967436
 23
130.2032139037561
 33
0.0
  0
SOLID
  5
6C7
330
6BF
100
AcDbEntity
  8
DIM
100
AcDbTrace
 10
618.9242171624063
 20
134.3140578219536
 30
0.0
 11
619.3408838290729
 21
133.5923699854665
 31
0.0
 12
616.9674869862785
 22
132.70321390371
 32
0.0
 13
616.9674869862785
 23
132.70321390371
 33
0.0
  0
MTEXT
  5
6C8
330
6BF
100
AcDbEntity
  8
DIM
 62
     7
100
AcDbMText
 10
613.8644234768572
 20
133.0778775612327
 30
0.0
 40
2.5
 41
0.0
 46
0.0
 71
     5
 72
     1
  1
\A1;5
  7
DIM
 11
0.8660254037844383
 21
0.5000000000000005
 31
0.0
 73
     1
 44
1.0
  0
POINT
  5
6C9
330
6BF
100
AcDbEntity
  8
DEFPOINTS
 62
     0
100
AcDbPoint
 10
605.4621725222107
 20
142.6310031127168
 30
0.0
  0
POINT
  5
6CA
330
6BF
100
AcDbEntity
  8
DEFPOINTS
 62
     0
100
AcDbPoint
 10
609.7922995410554
 20
145.1310031126669
 30
0.0
  0
POINT
  5
6CB
330
6BF
100
AcDbEntity
  8
DEFPOINTS
 62
     0
100
AcDbPoint
 10
616.9674869862785
 20
132.70321390371
 30
0.0
  0
ENDBLK
  5
6CC
330
6BF
100
AcDbEntity
  8
0
100
AcDbBlockEnd
  0
BLOCK
  5
6CE
330
6CD
100
AcDbEntity
  8
0
100
AcDbBlockBegin
  2
*D12
 70
     1
 10
0.0
 20
0.0
 30
0.0
  3
*D12
  1

  0
LINE
  5
6CF
330
6CD
100
AcDbEntity
  8
DIM
 62
     3
370
    -2
100
AcDbLine
 10
603.8801217146108
 20
141.3711954915815
 30
0.0
 11
614.5321288426292
 21
122.9213779432676
 31
0.0
  0
LINE
  5
6D0
330
6CD
100
AcDbEntity
  8
DIM
 62
     3
370
    -2
100
AcDbLine
 10
609.942299541022
 20
144.8711954915891
 30
0.0
 11
620.5943066690638
 21
126.421377943235
 31
0.0
  0
LINE
  5
6D1
330
6CD
100
AcDbEntity
  8
DIM
370
    -2
100
AcDbLine
 10
616.1971923520903
 20
125.037403347052
 30
0.0
 11
617.9292431596027
 21
126.0374033470194
 31
0.0
  0
SOLID
  5
6D2
330
6CD
100
AcDbEntity
  8
DIM
100
AcDbTrace
 10
615.9888590187571
 20
125.3982472652955
 30
0.0
 11
616.4055256854237
 21
124.6765594288085
 31
0.0
 12
614.0321288426292
 22
123.787403347052
 32
0.0
 13
614.0321288426292
 23
123.787403347052
 33
0.0
  0
SOLID
  5
6D3
330
6CD
100
AcDbEntity
  8
DIM
100
AcDbTrace
 10
617.7209098262694
 20
126.3982472652629
 30
0.0
 11
618.137576492936
 21
125.6765594287759
 31
0.0
 12
620.0943066690638
 22
127.2874033470194
 32
0.0
 13
620.0943066690638
 23
127.2874033470194
 33
0.0
  0
MTEXT
  5
6D4
330
6CD
100
AcDbEntity
  8
DIM
 62
     7
100
AcDbMText
 10
616.1252177558464
 20
127.1620670045353
 30
0.0
 40
2.5
 41
0.0
 46
0.0
 71
     5
 72
     1
  1
\A1;7
  7
DIM
 11
0.8660254037844383
 21
0.5000000000000005
 31
0.0
 73
     1
 44
1.0
  0
POINT
  5
6D5
330
6CD
100
AcDbEntity
  8
DEFPOINTS
 62
     0
100
AcDbPoint
 10
603.7301217146107
 20
141.6310031127169
 30
0.0
  0
POINT
  5
6D6
330
6CD
100
AcDbEntity
  8
DEFPOINTS
 62
     0
100
AcDbPoint
 10
609.7922995410221
 20
145.1310031127244
 30
0.0
  0
POINT
  5
6D7
330
6CD
100
AcDbEntity
  8
DEFPOINTS
 62
     0
100
AcDbPoint
 10
620.0943066690638
 20
127.2874033470194
 30
0.0
  0
ENDBLK
  5
6D8
330
6CD
100
AcDbEntity
  8
0
100
AcDbBlockEnd
  0
BLOCK
  5
6DA
330
6D9
100
AcDbEntity
  8
0
100
AcDbBlockBegin
  2
*D13
 70
     1
 10
0.0
 20
0.0
 30
0.0
  3
*D13
  1

  0
LINE
  5
6DB
330
6D9
100
AcDbEntity
  8
DIM
 62
     3
370
    -2
100
AcDbLine
 10
599.047504055463
 20
147.1201059109355
 30
0.0
 11
590.8619180619878
 21
152.2350277256115
 31
0.0
  0
LINE
  5
6DC
330
6D9
100
AcDbEntity
  8
DIM
 62
     3
370
    -2
100
AcDbLine
 10
594.0370342064518
 20
138.4417175626002
 30
0.0
 11
585.5145889798072
 21
142.9731820703202
 31
0.0
  0
ARC
  5
6DD
330
6D9
100
AcDbEntity
  8
DIM
370
    -2
100
AcDbCircle
 10
720.8005325395365
 20
71.04036991006001
 30
0.0
 40
152.2208079541728
100
AcDbArc
 50
148.9410083985814
 51
151.0589916022968
  0
SOLID
  5
6DE
330
6D9
100
AcDbEntity
  8
DIM
100
AcDbTrace
 10
590.047467961699
 20
149.7920713843987
 30
0.0
 11
590.7577771864748
 21
149.3562901897119
 31
0.0
 12
591.7099661581473
 22
151.7051084613831
 32
0.0
 13
591.7099661581473
 23
151.7051084613831
 33
0.0
  0
SOLID
  5
6DF
330
6D9
100
AcDbEntity
  8
DIM
100
AcDbTrace
 10
587.9555783789442
 20
144.5027394820739
 30
0.0
 11
587.2230261814599
 21
144.8999947179177
 31
0.0
 12
586.3975365726708
 22
142.5037105075427
 32
0.0
 13
586.3975365726708
 23
142.5037105075427
 33
0.0
  0
MTEXT
  5
6E0
330
6D9
100
AcDbEntity
  8
DIM
 62
     7
100
AcDbMText
 10
583.6013744400868
 20
141.1988849917477
 30
0.0
 40
2.5
 41
0.0
 46
0.0
 71
     5
 72
     1
  1
\A1;4°
  7
DIM
 11
0.4552885683560175
 21
0.8903439332776564
 31
0.0
 73
     1
 44
1.0
  0
POINT
  5
6E1
330
6D9
100
AcDbEntity
  8
DEFPOINTS
 62
     0
100
AcDbPoint
 10
589.8679342852664
 20
148.6794650143119
 30
0.0
  0
POINT
  5
6E2
330
6D9
100
AcDbEntity
  8
DEFPOINTS
 62
     0
100
AcDbPoint
 10
599.3019184843108
 20
146.961130131667
 30
0.0
  0
POINT
  5
6E3
330
6D9
100
AcDbEntity
  8
DEFPOINTS
 62
     0
100
AcDbPoint
 10
594.3019184843108
 20
138.300876093767
 30
0.0
  0
POINT
  5
6E4
330
6D9
100
AcDbEntity
  8
DEFPOINTS
 62
     0
100
AcDbPoint
 10
596.0688900614108
 20
137.361360640767
 30
0.0
  0
POINT
  5
6E5
330
6D9
100
AcDbEntity
  8
DEFPOINTS
 62
     0
100
AcDbPoint
 10
600.9990485224109
 20
145.900645584667
 30
0.0
  0
ENDBLK
  5
6E6
330
6D9
100
AcDbEntity
  8
0
100
AcDbBlockEnd
  0
BLOCK
  5
6E8
330
6E7
100
AcDbEntity
  8
0
100
AcDbBlockBegin
  2
*D14
 70
     1
 10
0.0
 20
0.0
 30
0.0
  3
*D14
  1

  0
LINE
  5
6E9
330
6E7
100
AcDbEntity
  8
DIM
 62
     3
370
    -2
100
AcDbLine
 10
611.6513476662247
 20
146.20432504817
 30
0.0
 11
618.9385554024934
 21
150.4115963963455
 31
0.0
  0
LINE
  5
6EA
330
6E7
100
AcDbEntity
  8
DIM
 62
     3
370
    -2
100
AcDbLine
 10
590.6127433401967
 20
146.20432504817
 30
0.0
 11
583.3255356039281
 21
150.4115963963455
 31
0.0
  0
ARC
  5
6EB
330
6E7
100
AcDbEntity
  8
DIM
370
    -2
100
AcDbCircle
 10
601.1320455032107
 20
140.1310031126669
 30
0.0
 40
19.5611865673572
100
AcDbArc
 50
37.32762880140075
 51
142.6723711985992
  0
SOLID
  5
6EC
330
6E7
100
AcDbEntity
  8
DIM
100
AcDbTrace
 10
617.0335262630868
 20
152.2233235317302
 30
0.0
 11
616.3399392859686
 21
151.7613911236698
 31
0.0
 12
618.072529998709
 22
149.9115963963455
 32
0.0
 13
618.072529998709
 23
149.9115963963455
 33
0.0
  0
SOLID
  5
6ED
330
6E7
100
AcDbEntity
  8
DIM
100
AcDbTrace
 10
585.9241517204528
 20
151.7613911236698
 30
0.0
 11
585.2305647433346
 21
152.2233235317302
 31
0.0
 12
584.1915610077125
 22
149.9115963963455
 32
0.0
 13
584.1915610077125
 23
149.9115963963455
 33
0.0
  0
MTEXT
  5
6EE
330
6E7
100
AcDbEntity
  8
DIM
 62
     7
100
AcDbMText
 10
601.1320455032107
 20
161.5681896800241
 30
0.0
 40
2.5
 41
0.0
 46
0.0
 71
     5
 72
     1
  1
\A1;120°
  7
DIM
 73
     1
 44
1.0
  0
POINT
  5
6EF
330
6E7
100
AcDbEntity
  8
DEFPOINTS
 62
     0
100
AcDbPoint
 10
607.8223653365983
 20
158.5125057838289
 30
0.0
  0
POINT
  5
6F0
330
6E7
100
AcDbEntity
  8
DEFPOINTS
 62
     0
100
AcDbPoint
 10
590.8725509613323
 20
134.2076811771638
 30
0.0
  0
POINT
  5
6F1
330
6E7
100
AcDbEntity
  8
DEFPOINTS
 62
     0
100
AcDbPoint
 10
611.3915400450892
 20
134.2076811771638
 30
0.0
  0
POINT
  5
6F2
330
6E7
100
AcDbEntity
  8
DEFPOINTS
 62
     0
100
AcDbPoint
 10
590.872550961332
 20
146.05432504817
 30
0.0
  0
POINT
  5
6F3
330
6E7
100
AcDbEntity
  8
DEFPOINTS
 62
     0
100
AcDbPoint
 10
611.3915400450894
 20
146.05432504817
 30
0.0
  0
ENDBLK
  5
6F4
330
6E7
100
AcDbEntity
  8
0
100
AcDbBlockEnd
  0
BLOCK
  5
6F6
330
6F5
100
AcDbEntity
  8
0
100
AcDbBlockBegin
  2
*D15
 70
     1
 10
0.0
 20
0.0
 30
0.0
  3
*D15
  1

  0
LINE
  5
6F7
330
6F5
100
AcDbEntity
  8
DIM
 62
     3
370
    -2
100
AcDbLine
 10
542.2489719702107
 20
128.1578231713513
 30
0.0
 11
542.2489719702107
 21
123.5352197460141
 31
0.0
  0
LINE
  5
6F8
330
6F5
100
AcDbEntity
  8
DIM
 62
     3
370
    -2
100
AcDbLine
 10
552.2489719702108
 20
132.5509730373399
 30
0.0
 11
552.2489719702108
 21
123.5352197460141
 31
0.0
  0
LINE
  5
6F9
330
6F5
100
AcDbEntity
  8
DIM
370
    -2
100
AcDbLine
 10
544.7489719702107
 20
124.5352197460141
 30
0.0
 11
549.7489719702108
 21
124.5352197460141
 31
0.0
  0
SOLID
  5
6FA
330
6F5
100
AcDbEntity
  8
DIM
100
AcDbTrace
 10
544.7489719702107
 20
124.9518864126808
 30
0.0
 11
544.7489719702107
 21
124.1185530793474
 31
0.0
 12
542.2489719702107
 22
124.5352197460141
 32
0.0
 13
542.2489719702107
 23
124.5352197460141
 33
0.0
  0
SOLID
  5
6FB
330
6F5
100
AcDbEntity
  8
DIM
100
AcDbTrace
 10
549.7489719702108
 20
124.9518864126808
 30
0.0
 11
549.7489719702108
 21
124.1185530793474
 31
0.0
 12
552.2489719702108
 22
124.5352197460141
 32
0.0
 13
552.2489719702108
 23
124.5352197460141
 33
0.0
  0
MTEXT
  5
6FC
330
6F5
100
AcDbEntity
  8
DIM
 62
     7
100
AcDbMText
 10
547.2489719702107
 20
126.4112197460141
 30
0.0
 40
2.5
 41
0.0
 46
0.0
 71
     5
 72
     1
  1
\A1;10
  7
DIM
 73
     1
 44
1.0
  0
POINT
  5
6FD
330
6F5
100
AcDbEntity
  8
DEFPOINTS
 62
     0
100
AcDbPoint
 10
542.2489719702107
 20
128.4578231713513
 30
0.0
  0
POINT
  5
6FE
330
6F5
100
AcDbEntity
  8
DEFPOINTS
 62
     0
100
AcDbPoint
 10
552.2489719702108
 20
132.8509730373399
 30
0.0
  0
POINT
  5
6FF
330
6F5
100
AcDbEntity
  8
DEFPOINTS
 62
     0
100
AcDbPoint
 10
552.2489719702108
 20
124.5352197460141
 30
0.0
  0
ENDBLK
  5
700
330
6F5
100
AcDbEntity
  8
0
100
AcDbBlockEnd
  0
BLOCK
  5
788
330
701
100
AcDbEntity
  8
0
100
AcDbBlockBegin
  2
A$C21337F74
 70
     0
 10
0.0
 20
0.0
 30
0.0
  3
A$C21337F74
  1

  0
SPLINE
  5
702
330
701
100
AcDbEntity
  8
0
  6
Continuous
 62
     7
100
AcDbSpline
210
0.0
220
0.0
230
1.0
 70
  1064
 71
     3
 72
    17
 73
    13
 74
    11
 42
0.000000001
 43
0.0000000001
 44
0.0000000001
 40
0.0
 40
0.0
 40
0.0
 40
0.0
 40
0.7754086046773578
 40
1.549979991730587
 40
2.313397627929011
 40
3.038783645382677
 40
3.688952523463636
 40
4.237546455981488
 40
4.686308977450804
 40
5.066693573042816
 40
5.429535949338959
 40
5.621416351692626
 40
5.621416351692626
 40
5.621416351692626
 40
5.621416351692626
 10
33.7404104835581
 20
28.8295148853121
 30
0.0
 10
33.48194092469178
 20
28.82956084935223
 30
0.0
 10
32.96528087952642
 20
28.82965272780457
 30
0.0
 10
32.19414892135786
 20
28.82751831267391
 30
0.0
 10
31.43974069429025
 20
28.81397908783648
 30
0.0
 10
30.72756593032623
 20
28.77421054644122
 30
0.0
 10
30.09057338923307
 20
28.69052720556237
 30
0.0
 10
29.55794899414509
 20
28.54758877056518
 30
0.0
 10
29.14465438478949
 20
28.33419500946449
 30
0.0
 10
28.86463828975836
 20
28.04003943485121
 30
0.0
 10
28.75176085246197
 20
27.73876119861988
 30
0.0
 10
28.74327754636161
 20
27.5537574527566
 30
0.0
 10
28.74034314335802
 20
27.48976405901209
 30
0.0
 11
33.7404104835581
 21
28.8295148853121
 31
0.0
 11
32.96500191695804
 21
28.82927188131208
 31
0.0
 11
32.1904395468581
 21
28.82553444011208
 31
0.0
 11
31.42720501495808
 21
28.80881509281208
 31
0.0
 11
30.70324912615808
 21
28.76328767921208
 31
0.0
 11
30.05968468305798
 21
28.67085187661209
 31
0.0
 11
29.53270789395799
 21
28.51836985621209
 31
0.0
 11
29.13994572345803
 21
28.30128536091209
 31
0.0
 11
28.88275079675805
 21
28.02102974501209
 31
0.0
 11
28.75614314765801
 21
27.68099284521209
 31
0.0
 11
28.74034314335802
 21
27.48976405901209
 31
0.0
  0
SPLINE
  5
703
330
701
100
AcDbEntity
  8
0
  6
Continuous
 62
     7
100
AcDbSpline
210
0.0
220
0.0
230
1.0
 70
  1064
 71
     3
 72
    17
 73
    13
 74
    11
 42
0.000000001
 43
0.0000000001
 44
0.0000000001
 40
0.0
 40
0.0
 40
0.0
 40
0.0
 40
0.7754053208765779
 40
1.549967389461764
 40
2.313381919333356
 40
3.038770485720039
 40
3.688942077626488
 40
4.237535488805856
 40
4.686295847699569
 40
5.066684461521605
 40
5.429529640486611
 40
5.621415713105008
 40
5.621415713105008
 40
5.621415713105008
 40
5.621415713105008
 10
33.740458378158
 20
8.829514885312093
 30
0.0
 10
33.99892684242117
 20
8.829468921715969
 30
0.0
 10
34.51558268682433
 20
8.829377044509072
 30
0.0
 10
35.28670940884611
 20
8.831511420229961
 30
0.0
 10
36.04111434589451
 20
8.845050286092696
 30
0.0
 10
36.75328986209868
 20
8.884818140952681
 30
0.0
 10
37.39028409729626
 20
8.968500583951847
 30
0.0
 10
37.92290888220443
 20
9.111437494644565
 30
0.0
 10
38.33620498270996
 20
9.324828716713078
 30
0.0
 10
38.6162252949679
 20
9.618982502388059
 30
0.0
 10
38.72910666147456
 20
9.920264090611405
 30
0.0
 10
38.73759028638284
 20
10.10527068583858
 30
0.0
 10
38.74052484155811
 20
10.16926597881209
 30
0.0
 11
33.740458378158
 21
8.829514885312093
 31
0.0
 11
34.51586366095808
 21
8.829757886212092
 31
0.0
 11
35.29041671305811
 21
8.833495207912079
 31
0.0
 11
36.05364814735811
 21
8.85021412281209
 31
0.0
 11
36.77760662885805
 21
8.895740920512082
 31
0.0
 11
37.42117392175805
 21
8.988175970312084
 31
0.0
 11
37.948150699758
 21
9.140656153412081
 31
0.0
 11
38.34091247575805
 21
9.357736891912082
 31
0.0
 11
38.59811284785804
 21
9.63799296431209
 31
0.0
 11
38.72472392485804
 21
9.978031578412085
 31
0.0
 11
38.74052484155811
 21
10.16926597881209
 31
0.0
  0
SPLINE
  5
704
330
701
100
AcDbEntity
  8
0
  6
Continuous
 62
     7
100
AcDbSpline
210
0.0
220
0.0
230
1.0
 70
  1064
 71
     3
 72
    17
 73
    13
 74
    11
 42
0.000000001
 43
0.0000000001
 44
0.0000000001
 40
0.0
 40
0.0
 40
0.0
 40
0.0
 40
0.1918795263445168
 40
0.5547218988007417
 40
0.9351038695321831
 40
1.383864156637775
 40
1.93245884527144
 40
2.582628670296551
 40
3.308010569486335
 40
4.071424097938137
 40
4.846006762187462
 40
5.621440182664078
 40
5.621440182664078
 40
5.621440182664078
 40
5.621440182664078
 10
28.74034314065807
 20
10.16926601361209
 30
0.0
 10
28.74327750228442
 20
10.10527291270363
 30
0.0
 10
28.75176071403787
 20
9.920269462245093
 30
0.0
 10
28.86463732310522
 20
9.618992217060128
 30
0.0
 10
29.14465142175657
 20
9.32483716189707
 30
0.0
 10
29.55794416405165
 20
9.111442739451687
 30
0.0
 10
30.09056820887185
 20
8.968503473228649
 30
0.0
 10
30.72755989785737
 20
8.884819785099438
 30
0.0
 10
31.43973221756586
 20
8.845050999216876
 30
0.0
 10
32.19414145831269
 20
8.831511481674404
 30
0.0
 10
32.96528407868186
 20
8.829377025493684
 30
0.0
 10
33.48195615478754
 20
8.829468915227472
 30
0.0
 10
33.74043398555807
 20
8.829514885312093
 30
0.0
 11
28.74034314065807
 21
10.16926601361209
 31
0.0
 11
28.75614294895809
 21
9.978038090212081
 31
0.0
 11
28.88275017505805
 21
9.638001037012088
 31
0.0
 11
29.13994267195801
 21
9.357746753912081
 31
0.0
 11
29.53270224435801
 21
9.140662176912087
 31
0.0
 11
30.05967947495799
 21
8.988178962012085
 31
0.0
 11
30.70324478105806
 21
8.895742507312093
 31
0.0
 11
31.42719653725805
 21
8.850214995112082
 31
0.0
 11
32.19042695635801
 21
8.833495462112082
 31
0.0
 11
32.96500060315805
 21
8.829757890912091
 31
0.0
 11
33.74043398555807
 21
8.829514885312093
 31
0.0
  0
SPLINE
  5
705
330
701
100
AcDbEntity
  8
0
  6
Continuous
 62
     7
100
AcDbSpline
210
0.0
220
0.0
230
1.0
 70
  1064
 71
     3
 72
    17
 73
    13
 74
    11
 42
0.000000001
 43
0.0000000001
 44
0.0000000001
 40
0.0
 40
0.0
 40
0.0
 40
0.0
 40
0.1918987054988887
 40
0.5547446072469016
 40
0.9351385146630223
 40
1.383906126306437
 40
1.932505023333474
 40
2.58268172300567
 40
3.30807911899644
 40
4.07150126551565
 40
4.846055596479856
 40
5.621439797839468
 40
5.621439797839468
 40
5.621439797839468
 40
5.621439797839468
 10
38.74052482465811
 20
27.48976408421209
 30
0.0
 10
38.73758988732696
 20
27.55376360862943
 30
0.0
 10
38.72910551192261
 20
27.73877471094294
 30
0.0
 10
38.61621722404193
 20
28.04006075601414
 30
0.0
 10
38.33618891138134
 20
28.33421312734881
 30
0.0
 10
37.92288461919759
 20
28.54760136322649
 30
0.0
 10
37.39025294584854
 20
28.69053507848252
 30
0.0
 10
36.75325189230937
 20
28.77421499778167
 30
0.0
 10
36.04106909553471
 20
28.81398101210566
 30
0.0
 10
35.28666124138968
 20
28.82751869771589
 30
0.0
 10
34.515541600064
 20
28.82965271106258
 30
0.0
 10
33.99889537462364
 20
28.82956084362486
 30
0.0
 10
33.74043395015803
 20
28.8295148853121
 30
0.0
 11
38.74052482465811
 21
27.48976408421209
 31
0.0
 11
38.72472174245809
 21
27.68101098161209
 31
0.0
 11
38.59810565845805
 21
28.02104850261209
 31
0.0
 11
38.34089736305805
 21
28.30130448841209
 31
0.0
 11
37.94812628695809
 21
28.51838339351208
 31
0.0
 11
37.42114281515808
 21
28.67086017951209
 31
0.0
 11
36.77756995015807
 21
28.76329236131208
 31
0.0
 11
36.053602508258
 21
28.80881735641209
 31
0.0
 11
35.29036343025803
 21
28.82553511971209
 31
0.0
 11
34.51581811345807
 21
28.82927194171209
 31
0.0
 11
33.74043395015803
 21
28.8295148853121
 31
0.0
  0
SPLINE
  5
706
330
701
100
AcDbEntity
  8
0
  6
Continuous
 62
     7
100
AcDbSpline
210
0.0
220
0.0
230
1.0
 70
  1064
 71
     3
 72
    17
 73
    13
 74
    11
 42
0.000000001
 43
0.0000000001
 44
0.0000000001
 40
0.0
 40
0.0
 40
0.0
 40
0.0
 40
0.2056041272615593
 40
0.6714434036006896
 40
1.228145000469961
 40
1.884213536092567
 40
2.632043734187333
 40
3.444164012584548
 40
4.278856972444466
 40
5.100502197533167
 40
5.896101712007665
 40
6.673727710298444
 40
6.673727710298444
 40
6.673727710298444
 40
6.673727710298444
 10
28.74034314335802
 20
27.48976405901209
 30
0.0
 10
28.7438386330547
 20
27.42119949105963
 30
0.0
 10
28.7552538878477
 20
27.1972875128052
 30
0.0
 10
28.88032706781377
 20
26.80137678182823
 30
0.0
 10
29.14399582533678
 20
26.30615323297279
 30
0.0
 10
29.5410767553221
 20
25.78359491771037
 30
0.0
 10
30.06464886249983
 20
25.2597198888563
 30
0.0
 10
30.69945845624943
 20
24.77206054126863
 30
0.0
 10
31.41493159017594
 20
24.35996506633916
 30
0.0
 10
32.17625334731784
 20
24.05682076644734
 30
0.0
 10
32.95605517177384
 20
23.86504737378718
 30
0.0
 10
33.48097338399169
 20
23.84126849318237
 30
0.0
 10
33.74043399245806
 20
23.82951488531209
 30
0.0
 11
28.74034314335802
 21
27.48976405901209
 31
0.0
 11
28.75617088605805
 21
27.28477005981209
 31
0.0
 11
28.88279618455806
 21
26.83647075671209
 31
0.0
 11
29.14000335665799
 21
26.34274903491209
 31
0.0
 11
29.53283568485801
 21
25.81728858411209
 31
0.0
 11
30.05979446865808
 21
25.28666211911208
 31
0.0
 11
30.70338695715804
 21
24.79135609721209
 31
0.0
 11
31.42740030725804
 21
24.37600443161209
 31
0.0
 11
32.19065021235804
 21
24.07178336351208
 31
0.0
 11
32.96514404595803
 21
23.88974521051209
 31
0.0
 11
33.74043399245806
 21
23.82951488531209
 31
0.0
  0
SPLINE
  5
707
330
701
100
AcDbEntity
  8
0
  6
Continuous
 62
     7
100
AcDbSpline
210
0.0
220
0.0
230
1.0
 70
  1064
 71
     3
 72
    17
 73
    13
 74
    11
 42
0.000000001
 43
0.0000000001
 44
0.0000000001
 40
0.0
 40
0.0
 40
0.0
 40
0.0
 40
0.2056000024746003
 40
0.6714373528203376
 40
1.228143373159467
 40
1.884207029517173
 40
2.632034694706157
 40
3.444159957364903
 40
4.278855468067264
 40
5.100496062967301
 40
5.896093151172456
 40
6.673727428363736
 40
6.673727428363736
 40
6.673727428363736
 40
6.673727428363736
 10
38.74052484155811
 20
10.16926597881209
 30
0.0
 10
38.73702947363999
 20
10.23782916984577
 30
0.0
 10
38.72561449040154
 20
10.4617391257528
 30
0.0
 10
38.60054252380401
 20
10.85764963375907
 30
0.0
 10
38.33687455136386
 20
11.35287279360729
 30
0.0
 10
37.93979474606261
 20
11.87543063610092
 30
0.0
 10
37.41622390430499
 20
12.3993057860224
 30
0.0
 10
36.78141345198983
 20
12.88696680910311
 30
0.0
 10
36.06593963187378
 20
13.29906307966228
 30
0.0
 10
35.30461949396228
 20
13.60220726903248
 30
0.0
 10
34.52481754797616
 20
13.7939818318998
 30
0.0
 10
33.99989736977155
 20
13.81776103608903
 30
0.0
 10
33.74043399245806
 20
13.82951488531209
 30
0.0
 11
38.74052484155811
 21
10.16926597881209
 31
0.0
 11
38.72469766825805
 21
10.37425588491209
 31
0.0
 11
38.59807397265809
 21
10.82255363941209
 31
0.0
 11
38.34086535065808
 21
11.31627959361208
 31
0.0
 11
37.94803638115798
 21
11.84173646331209
 31
0.0
 11
37.42108009845799
 21
12.37236184241209
 31
0.0
 11
36.77748417235807
 21
12.86767156991209
 31
0.0
 11
36.05346878145804
 21
13.28302480431209
 31
0.0
 11
35.29022336985804
 21
13.58724464071208
 31
0.0
 11
34.51573214355801
 21
13.76928328261209
 31
0.0
 11
33.74043399245806
 21
13.82951488531209
 31
0.0
  0
SPLINE
  5
708
330
701
100
AcDbEntity
  8
0
  6
Continuous
 62
     7
100
AcDbSpline
210
0.0
220
0.0
230
1.0
 70
  1064
 71
     3
 72
    17
 73
    13
 74
    11
 42
0.000000001
 43
0.0000000001
 44
0.0000000001
 40
0.0
 40
0.0
 40
0.0
 40
0.0
 40
0.7776172223374789
 40
1.573212569040169
 40
2.394858706201828
 40
3.229559484198676
 40
4.041689614861764
 40
4.789520688033817
 40
5.445585875202277
 40
6.002297307950631
 40
6.4681401076804
 40
6.673727662974926
 40
6.673727662974926
 40
6.673727662974926
 40
6.673727662974926
 10
33.74043399245806
 20
23.82951488531209
 30
0.0
 10
33.99989166672876
 20
23.84126823097619
 30
0.0
 10
34.52480554796922
 20
23.86504665382471
 30
0.0
 10
35.30460381648364
 20
24.05681737976044
 30
0.0
 10
36.0659276759755
 20
24.35996058149894
 30
0.0
 10
36.78140678611045
 20
24.77205823967314
 30
0.0
 10
37.41622128763499
 20
25.25972146481566
 30
0.0
 10
37.93979461409004
 20
25.78359879978451
 30
0.0
 10
38.33687638081241
 20
26.30615950090443
 30
0.0
 10
38.60054580282122
 20
26.80138665771866
 30
0.0
 10
38.72561571222741
 20
27.19729742509531
 30
0.0
 10
38.73702988123657
 20
27.42120504482928
 30
0.0
 10
38.74052482465811
 20
27.48976408421209
 30
0.0
 11
33.74043399245806
 21
23.82951488531209
 31
0.0
 11
34.51571524175802
 21
23.88974385641208
 31
0.0
 11
35.29020539385806
 21
24.07177945731209
 31
0.0
 11
36.05345682005804
 21
24.37599917251208
 31
0.0
 11
36.77747751455809
 21
24.79135374721209
 31
0.0
 11
37.42107775065802
 21
25.28666585611208
 31
0.0
 11
37.94803656685804
 21
25.81729352221208
 31
0.0
 11
38.34086632355809
 21
26.34275171471208
 31
0.0
 11
38.59807669315808
 21
26.83648286131209
 31
0.0
 11
38.72469954785799
 21
27.28478651591209
 31
0.0
 11
38.74052482465811
 21
27.48976408421209
 31
0.0
  0
SPLINE
  5
709
330
701
100
AcDbEntity
  8
0
  6
Continuous
 62
     7
100
AcDbSpline
210
0.0
220
0.0
230
1.0
 70
  1064
 71
     3
 72
    17
 73
    13
 74
    11
 42
0.000000001
 43
0.0000000001
 44
0.0000000001
 40
0.0
 40
0.0
 40
0.0
 40
0.0
 40
0.7776457348129826
 40
1.573249809179529
 40
2.394892351352432
 40
3.229582480110761
 40
4.041699510906819
 40
4.789527167824494
 40
5.445594249733357
 40
6.00228991892226
 40
6.468123019317305
 40
6.67372741618605
 40
6.67372741618605
 40
6.67372741618605
 40
6.67372741618605
 10
33.74043399245806
 20
13.82951488531209
 30
0.0
 10
33.4809667845209
 20
13.81776069208964
 30
0.0
 10
32.95604043682653
 20
13.79398086354248
 30
0.0
 10
32.1762323396954
 20
13.60220231732815
 30
0.0
 10
31.41491214716315
 20
13.29905508679554
 30
0.0
 10
30.69944293880432
 20
12.88695870537279
 30
0.0
 10
30.06463699835924
 20
12.3992993597145
 30
0.0
 10
29.54106793029129
 20
11.87542472064066
 30
0.0
 10
29.14399039942037
 20
11.35286797428478
 30
0.0
 10
28.88032515833088
 20
10.85764768035595
 30
0.0
 10
28.75525386378912
 20
10.46174067604221
 30
0.0
 10
28.74383865239673
 20
10.23783067052373
 30
0.0
 10
28.74034314065807
 20
10.16926601361209
 30
0.0
 11
33.74043399245806
 21
13.82951488531209
 31
0.0
 11
32.96512448655801
 21
13.76928151471209
 31
0.0
 11
32.19062697645802
 21
13.58723907461208
 31
0.0
 11
31.4273808025581
 21
13.28301589151209
 31
0.0
 11
30.70337130345809
 21
12.86766320251209
 31
0.0
 11
30.05978278805799
 21
12.37235734291208
 31
0.0
 11
29.53282716225806
 21
11.84173132311208
 31
0.0
 11
29.13999716345802
 21
11.31627094591208
 31
0.0
 11
28.882794070258
 21
10.82255378301208
 31
0.0
 11
28.75617097025804
 21
10.37426027651209
 31
0.0
 11
28.74034314065807
 21
10.16926601361209
 31
0.0
  0
SPLINE
  5
70A
330
701
100
AcDbEntity
  8
0
  6
Continuous
 62
     7
100
AcDbSpline
210
0.0
220
0.0
230
1.0
 70
  1064
 71
     3
 72
    19
 73
    15
 74
    13
 42
0.000000001
 43
0.0000000001
 44
0.0000000001
 40
0.0
 40
0.0
 40
0.0
 40
0.0
 40
0.2072020117733723
 40
0.4090394066543002
 40
0.5974252966523862
 40
0.7645378922135232
 40
0.9085366733114913
 40
1.032041942817968
 40
1.139390236407272
 40
1.237272866126624
 40
1.33065157845748
 40
1.423381394068087
 40
1.516863614100502
 40
1.610976721602318
 40
1.610976721602318
 40
1.610976721602318
 40
1.610976721602318
 10
30.74043399245807
 20
63.83300108190937
 30
0.0
 10
30.69473799712877
 20
63.88487432518958
 30
0.0
 10
30.60452911037135
 20
63.98727777422452
 30
0.0
 10
30.49467030944277
 20
64.15426535870489
 30
0.0
 10
30.41513210542856
 20
64.3230176983102
 30
0.0
 10
30.37260018743456
 20
64.48514978662617
 30
0.0
 10
30.36532254064002
 20
64.6309223952275
 30
0.0
 10
30.38527198128749
 20
64.75512587099071
 30
0.0
 10
30.42280831314239
 20
64.85865757776577
 30
0.0
 10
30.47141958106328
 20
64.9459177650996
 30
0.0
 10
30.52836183350351
 20
65.02185585231663
 30
0.0
 10
30.59271802397013
 20
65.08947942382359
 30
0.0
 10
30.663394552732
 20
65.15088478541951
 30
0.0
 10
30.71469666914401
 20
65.18669767741525
 30
0.0
 10
30.74043399245807
 20
65.20466434320937
 30
0.0
 11
30.74043399245807
 21
63.83300108190937
 31
0.0
 11
30.60719291605801
 21
63.99168154460937
 31
0.0
 11
30.49649538675806
 21
64.16045473850937
 31
0.0
 11
30.417842548458
 21
64.33163585480937
 31
0.0
 11
30.37677232175804
 21
64.49362306440938
 31
0.0
 11
30.37040268995804
 21
64.63748089960938
 31
0.0
 11
30.39016003645804
 21
64.75939561920938
 31
0.0
 11
30.426618478558
 21
64.86036312950938
 31
0.0
 11
30.47404207615807
 21
64.94599029570938
 31
0.0
 11
30.529882178158
 21
65.02083324410938
 31
0.0
 11
30.59355812975798
 21
65.08824386560937
 31
0.0
 11
30.664230004258
 21
65.14943546320939
 31
0.0
 11
30.74043399245807
 21
65.20466434320937
 31
0.0
  0
SPLINE
  5
70B
330
701
100
AcDbEntity
  8
0
  6
Continuous
 62
     7
100
AcDbSpline
210
0.0
220
0.0
230
1.0
 70
  1064
 71
     3
 72
    19
 73
    15
 74
    13
 42
0.000000001
 43
0.0000000001
 44
0.0000000001
 40
0.0
 40
0.0
 40
0.0
 40
0.0
 40
0.1150263078461519
 40
0.2295095741884282
 40
0.3428332383422573
 40
0.4550357955916936
 40
0.5681187703992396
 40
0.6848590988568362
 40
0.8075250413733899
 40
0.9350680474387798
 40
1.064930517348893
 40
1.194833892460324
 40
1.321715291810275
 40
1.442646627560396
 40
1.442646627560396
 40
1.442646627560396
 40
1.442646627560396
 10
30.74043399245807
 20
65.20466434320937
 30
0.0
 10
30.755063222508
 20
65.16922050361033
 30
0.0
 10
30.78425261771972
 20
65.09850015548912
 30
0.0
 10
30.82418220749111
 20
64.99139827174764
 30
0.0
 10
30.86015357211774
 20
64.88389356951152
 30
0.0
 10
30.89112241914623
 20
64.77530606380579
 30
0.0
 10
30.91617612292243
 20
64.6640066256049
 30
0.0
 10
30.93357741618603
 20
64.54767226092008
 30
0.0
 10
30.94014570999001
 20
64.42529603570559
 30
0.0
 10
30.93174592527575
 20
64.29852630462377
 30
0.0
 10
30.9056177277629
 20
64.17164343617161
 30
0.0
 10
30.86232464144512
 20
64.04989908723443
 30
0.0
 10
30.80676199554506
 20
63.93656670839034
 30
0.0
 10
30.76218657004516
 20
63.86696591155196
 30
0.0
 10
30.74043399245807
 20
63.83300108190937
 30
0.0
 11
30.74043399245807
 21
65.20466434320937
 31
0.0
 11
30.78370413375808
 21
65.09808692360937
 31
0.0
 11
30.82370314425805
 21
64.99081858050937
 31
0.0
 11
30.85945582565808
 21
64.88328254640936
 31
0.0
 11
30.89002439355807
 21
64.77532432990938
 31
0.0
 11
30.91457927055808
 21
64.66493947040937
 31
0.0
 11
30.93149360645805
 21
64.54943098790938
 31
0.0
 11
30.93765289645808
 21
64.42691977780936
 31
0.0
 11
30.92893055545801
 21
64.29967537060938
 31
0.0
 11
30.90273087785806
 21
64.17248324040937
 31
0.0
 11
30.85967759125799
 21
64.04992182160936
 31
0.0
 11
30.80375761425808
 21
63.93602781090937
 31
0.0
 11
30.74043399245807
 21
63.83300108190937
 31
0.0
  0
SPLINE
  5
70C
330
701
100
AcDbEntity
  8
0
  6
Continuous
 62
     7
100
AcDbSpline
210
0.0
220
0.0
230
1.0
 70
  1064
 71
     3
 72
     9
 73
     5
 74
     3
 42
0.000000001
 43
0.0000000001
 44
0.0000000001
 40
0.0
 40
0.0
 40
0.0
 40
0.0
 40
0.2792717401619853
 40
0.6129654363505864
 40
0.6129654363505864
 40
0.6129654363505864
 40
0.6129654363505864
 10
30.92282418505806
 20
64.5227695880094
 30
0.0
 10
30.84888510814542
 20
64.57939320599194
 30
0.0
 10
30.6865983743827
 20
64.70367474154682
 30
0.0
 10
30.535113210607
 20
64.84094664790784
 30
0.0
 10
30.452645845858
 20
64.91567642400937
 30
0.0
 11
30.92282418505806
 21
64.5227695880094
 31
0.0
 11
30.70324912615808
 21
64.69533696140939
 31
0.0
 11
30.452645845858
 21
64.91567642400937
 31
0.0
  0
CIRCLE
  5
70D
330
701
100
AcDbEntity
  8
0
  6
Continuous
 62
     7
100
AcDbCircle
 10
92.62350752545808
 20
63.54635563920936
 30
0.0
 40
10.0
  0
LINE
  5
70E
330
701
100
AcDbEntity
  8
0
  6
Continuous
 62
     7
100
AcDbLine
 10
43.74043399245806
 20
8.829514885312093
 30
0.0
 11
43.74043399245806
 21
28.8295148853121
 31
0.0
  0
LINE
  5
70F
330
701
100
AcDbEntity
  8
0
  6
Continuous
 62
     7
100
AcDbLine
 10
43.74043399245806
 20
28.8295148853121
 30
0.0
 11
23.74043399245806
 21
28.8295148853121
 31
0.0
  0
LINE
  5
710
330
701
100
AcDbEntity
  8
0
  6
Continuous
 62
     7
100
AcDbLine
 10
23.74043399245806
 20
27.92951488531209
 30
0.0
 11
22.24043399245807
 21
27.92951488531209
 31
0.0
  0
LWPOLYLINE
  5
711
330
701
100
AcDbEntity
  8
0
  6
Continuous
 62
     7
100
AcDbPolyline
 90
        6
 70
     0
 43
0.0
 10
37.07036324715807
 20
25.01675740891208
 10
36.95437204085806
 20
25.07475301201208
 10
36.24043399245806
 20
25.32470541371208
 10
35.45053470905805
 20
25.50887345621209
 10
34.60867488075803
 20
25.62166128671208
 10
33.74043399245806
 20
25.65964190421208
  0
LWPOLYLINE
  5
712
330
701
100
AcDbEntity
  8
0
  6
Continuous
 62
     7
100
AcDbPolyline
 90
        5
 70
     0
 43
0.0
 10
37.07468902575806
 20
12.63894349851209
 10
36.37259480685805
 20
12.37384502701208
 10
35.54664232335801
 20
12.16820729281208
 10
34.65918158155807
 20
12.04195511711208
 10
33.74043399245806
 20
11.99938786631209
  0
LINE
  5
713
330
701
100
AcDbEntity
  8
0
  6
Continuous
 62
     7
100
AcDbLine
 10
34.24967637615805
 20
23.86907619911209
 30
0.0
 11
33.74043399245806
 21
23.89267032711209
 31
0.0
  0
LINE
  5
714
330
701
100
AcDbEntity
  8
0
  6
Continuous
 62
     7
100
AcDbLine
 10
33.23119520215801
 20
23.86907636561209
 30
0.0
 11
33.74043399245806
 21
23.89267032711209
 31
0.0
  0
LINE
  5
715
330
701
100
AcDbEntity
  8
0
  6
Continuous
 62
     7
100
AcDbLine
 10
33.23120328325809
 20
13.78995303061208
 30
0.0
 11
33.74043399245806
 21
13.76635944341208
 31
0.0
  0
LINE
  5
716
330
701
100
AcDbEntity
  8
0
  6
Continuous
 62
     7
100
AcDbLine
 10
34.24966939295803
 20
13.78995324791208
 30
0.0
 11
33.74043399245806
 21
13.76635944341208
 31
0.0
  0
LWPOLYLINE
  5
717
330
701
100
AcDbEntity
  8
0
  6
Continuous
 62
     7
100
AcDbPolyline
 90
        5
 70
     0
 43
0.0
 10
30.40617859995803
 20
12.63894363411208
 10
31.10827317805809
 20
12.37384502701208
 10
31.93422566145807
 20
12.16820729281208
 10
32.82168640335806
 20
12.04195511711208
 10
33.74043399245806
 20
11.99938786631209
  0
LWPOLYLINE
  5
718
330
701
100
AcDbEntity
  8
0
  6
Continuous
 62
     7
100
AcDbPolyline
 90
        6
 70
     0
 43
0.0
 10
30.41050441455798
 20
25.01675724721208
 10
30.52649594405807
 20
25.07475301201208
 10
31.24043399245806
 20
25.32470541371208
 10
32.03033327585809
 20
25.50887345621209
 10
32.8721931041581
 20
25.62166128671208
 10
33.74043399245806
 20
25.65964190421208
  0
LINE
  5
719
330
701
100
AcDbEntity
  8
0
  6
Continuous
 62
     7
100
AcDbLine
 10
23.74043399245806
 20
9.729514885312084
 30
0.0
 11
22.24043399245795
 21
9.729514885312084
 31
0.0
  0
LINE
  5
71A
330
701
100
AcDbEntity
  8
0
  6
Continuous
 62
     7
100
AcDbLine
 10
23.74043399245806
 20
8.829514885312093
 30
0.0
 11
23.74043399245806
 21
28.8295148853121
 31
0.0
  0
LINE
  5
71B
330
701
100
AcDbEntity
  8
0
  6
Continuous
 62
     7
100
AcDbLine
 10
43.74043399245806
 20
8.829514885312093
 30
0.0
 11
23.74043399245806
 21
8.829514885312093
 31
0.0
  0
LINE
  5
71C
330
701
100
AcDbEntity
  8
0
  6
Continuous
 62
     7
100
AcDbLine
 10
21.74043399245795
 20
10.22951488531208
 30
0.0
 11
21.74043399245807
 21
27.42951488531209
 31
0.0
  0
LINE
  5
71D
330
701
100
AcDbEntity
  8
0
  6
Continuous
 62
     2
100
AcDbLine
 10
102.476669263758
 20
63.46157852930938
 30
0.0
 11
92.56558880255807
 21
53.55049806810939
 31
0.0
  0
LINE
  5
71E
330
701
100
AcDbEntity
  8
0
  6
Continuous
 62
     7
100
AcDbLine
 10
99.45363454445805
 20
61.71622862030938
 30
0.0
 11
94.45363454445805
 21
70.3764826582094
 31
0.0
  0
LINE
  5
71F
330
701
100
AcDbEntity
  8
0
  6
Continuous
 62
     7
100
AcDbLine
 10
87.62350752545808
 20
72.20660967710938
 30
0.0
 11
90.79338050655804
 21
70.3764826582094
 31
0.0
  0
LINE
  5
720
330
701
100
AcDbEntity
  8
0
  6
Continuous
 62
     7
100
AcDbLine
 10
99.45363454445805
 20
61.71622862030938
 30
0.0
 11
102.6235075254581
 21
63.54635563920936
 31
0.0
  0
LINE
  5
721
330
701
100
AcDbEntity
  8
0
  6
Continuous
 62
     7
100
AcDbLine
 10
90.79338050655804
 20
70.3764826582094
 30
0.0
 11
92.49051054465804
 21
69.31599811120938
 31
0.0
  0
LINE
  5
722
330
701
100
AcDbEntity
  8
0
  6
Continuous
 62
     7
100
AcDbLine
 10
97.68666296735808
 20
60.77671316730937
 30
0.0
 11
99.45363454445805
 21
61.71622862030938
 31
0.0
  0
LINE
  5
723
330
701
100
AcDbEntity
  8
0
  6
Continuous
 62
     2
100
AcDbLine
 10
96.33154242475804
 20
61.55909237740937
 30
0.0
 11
89.01789265795798
 21
54.24544261060936
 31
0.0
  0
LINE
  5
724
330
701
100
AcDbEntity
  8
0
  6
Continuous
 62
     7
100
AcDbLine
 10
97.68666296735808
 20
60.77671316730937
 30
0.0
 11
92.75650450635806
 21
69.31599811120938
 31
0.0
  0
LINE
  5
725
330
701
100
AcDbEntity
  8
0
  6
Continuous
 62
     7
100
AcDbLine
 10
92.75650450635806
 20
63.62314148190939
 30
0.0
 11
97.68666296735808
 21
60.77671316730937
 31
0.0
  0
LINE
  5
726
330
701
100
AcDbEntity
  8
0
  6
Continuous
 62
     2
100
AcDbLine
 10
93.64181600825805
 20
63.11200664800939
 30
0.0
 11
86.32868690085809
 21
55.79887754070938
 31
0.0
  0
LINE
  5
727
330
701
100
AcDbEntity
  8
0
  6
Continuous
 62
     7
100
AcDbLine
 10
92.75650450635806
 20
63.62314148190939
 30
0.0
 11
92.75650450635806
 21
69.31599811120938
 31
0.0
  0
LINE
  5
728
330
701
100
AcDbEntity
  8
0
  6
Continuous
 62
     7
100
AcDbLine
 10
87.56035208365801
 20
60.77671316730937
 30
0.0
 11
92.49051054465804
 21
63.62314148190939
 31
0.0
  0
LINE
  5
729
330
701
100
AcDbEntity
  8
0
  6
Continuous
 62
     7
100
AcDbLine
 10
92.49051054465804
 20
69.31599811120938
 30
0.0
 11
92.49051054465804
 21
63.62314148190939
 31
0.0
  0
LINE
  5
72A
330
701
100
AcDbEntity
  8
0
  6
Continuous
 62
     2
100
AcDbLine
 10
87.23622386915804
 20
60.94905519600939
 30
0.0
 11
84.30350576395801
 21
58.01633709090936
 31
0.0
  0
LINE
  5
72B
330
701
100
AcDbEntity
  8
0
  6
Continuous
 62
     2
100
AcDbLine
 10
92.75650450635806
 20
66.46933583320936
 30
0.0
 11
92.49051054465804
 21
66.20334187160938
 31
0.0
  0
LINE
  5
72C
330
701
100
AcDbEntity
  8
0
  6
Continuous
 62
     7
100
AcDbLine
 10
87.56035208365801
 20
60.77671316730937
 30
0.0
 11
92.49051054465804
 21
69.31599811120938
 31
0.0
  0
LINE
  5
72D
330
701
100
AcDbEntity
  8
0
  6
Continuous
 62
     7
100
AcDbLine
 10
82.62350752545808
 20
63.54635563920936
 30
0.0
 11
85.79338050655804
 21
61.71622862030938
 31
0.0
  0
LINE
  5
72E
330
701
100
AcDbEntity
  8
0
  6
Continuous
 62
     7
100
AcDbLine
 10
85.79338050655804
 20
61.71622862030938
 30
0.0
 11
87.56035208365801
 21
60.77671316730937
 31
0.0
  0
LINE
  5
72F
330
701
100
AcDbEntity
  8
0
  6
Continuous
 62
     7
100
AcDbLine
 10
94.45363454445805
 20
70.3764826582094
 30
0.0
 11
97.62350752545808
 21
72.20660967710938
 31
0.0
  0
LINE
  5
730
330
701
100
AcDbEntity
  8
0
  6
Continuous
 62
     7
100
AcDbLine
 10
92.75650450635806
 20
69.31599811120938
 30
0.0
 11
94.45363454445805
 21
70.3764826582094
 31
0.0
  0
LINE
  5
731
330
701
100
AcDbEntity
  8
0
  6
Continuous
 62
     2
100
AcDbLine
 10
84.50474859015811
 20
62.46022060420938
 30
0.0
 11
82.98301353835801
 21
60.93848555240936
 31
0.0
  0
LINE
  5
732
330
701
100
AcDbEntity
  8
0
  6
Continuous
 62
     2
100
AcDbLine
 10
95.24041252845803
 20
73.19588454250936
 30
0.0
 11
91.79507958825809
 21
69.75055160220938
 31
0.0
  0
LINE
  5
733
330
701
100
AcDbEntity
  8
0
  6
Continuous
 62
     7
100
AcDbLine
 10
85.79338050655804
 20
61.71622862030938
 30
0.0
 11
90.79338050655804
 21
70.3764826582094
 31
0.0
  0
LINE
  5
734
330
701
100
AcDbEntity
  8
0
  6
Continuous
 62
     2
100
AcDbLine
 10
91.24891336785811
 20
73.44702606900938
 30
0.0
 11
89.13553024935811
 21
71.33364295050938
 31
0.0
  0
LINE
  5
735
330
701
100
AcDbEntity
  8
0
  6
Continuous
 62
     2
100
AcDbLine
 10
39.5388933053581
 20
53.54635563920936
 30
0.0
 11
43.74043399245806
 21
57.74789632640938
 31
0.0
  0
LINE
  5
736
330
701
100
AcDbEntity
  8
0
  6
Continuous
 62
     7
100
AcDbLine
 10
43.74043399245806
 20
53.54635563920936
 30
0.0
 11
43.74043399245806
 21
73.54635563920936
 31
0.0
  0
LINE
  5
737
330
701
100
AcDbEntity
  8
0
  6
Continuous
 62
     7
100
AcDbLine
 10
43.74043399245806
 20
73.54635563920936
 30
0.0
 11
23.74043399245806
 21
73.54635563920936
 31
0.0
  0
LINE
  5
738
330
701
100
AcDbEntity
  8
0
  6
Continuous
 62
     7
100
AcDbLine
 10
23.74043399245806
 20
72.64635563920939
 30
0.0
 11
22.24043399245807
 21
72.64635563920939
 31
0.0
  0
LINE
  5
739
330
701
100
AcDbEntity
  8
0
  6
Continuous
 62
     2
100
AcDbLine
 10
35.29625261815807
 20
53.54635563920936
 30
0.0
 11
43.74043399245806
 21
61.99053701350937
 31
0.0
  0
LINE
  5
73A
330
701
100
AcDbEntity
  8
0
  6
Continuous
 62
     7
100
AcDbLine
 10
27.74043399245807
 20
71.54635563920937
 30
0.0
 11
21.74043399245807
 21
71.54635563920937
 31
0.0
  0
LINE
  5
73B
330
701
100
AcDbEntity
  8
0
  6
Continuous
 62
     2
100
AcDbLine
 10
31.05361193105807
 20
53.54635563920936
 30
0.0
 11
43.74043399245806
 21
66.23317770060936
 31
0.0
  0
LINE
  5
73C
330
701
100
AcDbEntity
  8
0
  6
Continuous
 62
     7
100
AcDbLine
 10
27.74043399245807
 20
67.04635563920937
 30
0.0
 11
21.74043399245807
 21
67.04635563920937
 31
0.0
  0
LINE
  5
73D
330
701
100
AcDbEntity
  8
0
  6
Continuous
 62
     2
100
AcDbLine
 10
28.74043399245806
 20
66.04635563920936
 30
0.0
 11
21.86543399245806
 21
66.04635563920936
 31
0.0
  0
LINE
  5
73E
330
701
100
AcDbEntity
  8
0
  6
Continuous
 62
     2
100
AcDbLine
 10
26.81097124395808
 20
53.54635563920936
 30
0.0
 11
43.74043399245806
 21
70.47581838770938
 31
0.0
  0
LINE
  5
73F
330
701
100
AcDbEntity
  8
0
  6
Continuous
 62
     7
100
AcDbLine
 10
30.74043399245807
 20
65.64635563920939
 30
0.0
 11
22.26543399245804
 21
65.64635563920939
 31
0.0
  0
LINE
  5
740
330
701
100
AcDbEntity
  8
0
  6
Continuous
 62
     7
100
AcDbLine
 10
32.00224129235801
 20
63.54635563920936
 30
0.0
 11
30.74043399245807
 21
65.64635563920939
 31
0.0
  0
LINE
  5
741
330
701
100
AcDbEntity
  8
0
  6
Continuous
 62
     2
100
AcDbLine
 10
31.15005591035799
 20
62.12808099280938
 30
0.0
 11
42.56833055685809
 21
73.54635563920936
 31
0.0
  0
LINE
  5
742
330
701
100
AcDbEntity
  8
0
  6
Continuous
 62
     2
100
AcDbLine
 10
27.74043399245807
 20
58.71845907480937
 30
0.0
 11
30.46833055685806
 21
61.44635563920937
 31
0.0
  0
LINE
  5
743
330
701
100
AcDbEntity
  8
0
  6
Continuous
 62
     2
100
AcDbLine
 10
23.46833055685806
 20
54.44635563920937
 30
0.0
 11
24.56833055685809
 21
55.54635563920936
 31
0.0
  0
LINE
  5
744
330
701
100
AcDbEntity
  8
0
  6
Continuous
 62
     7
100
AcDbLine
 10
32.00224129235801
 20
63.54635563920936
 30
0.0
 11
30.74043399245807
 21
61.44635563920937
 31
0.0
  0
LINE
  5
745
330
701
100
AcDbEntity
  8
0
  6
Continuous
 62
     7
100
AcDbLine
 10
30.74043399245807
 20
61.44635563920937
 30
0.0
 11
22.26543399245804
 21
61.44635563920937
 31
0.0
  0
LINE
  5
746
330
701
100
AcDbEntity
  8
0
  6
Continuous
 62
     2
100
AcDbLine
 10
28.74043399245806
 20
61.04635563920936
 30
0.0
 11
21.86543399245806
 21
61.04635563920936
 31
0.0
  0
LINE
  5
747
330
701
100
AcDbEntity
  8
0
  6
Continuous
 62
     7
100
AcDbLine
 10
30.74043399245807
 20
65.20466434320937
 30
0.0
 11
30.74043399245807
 21
65.64635563920939
 31
0.0
  0
LINE
  5
748
330
701
100
AcDbEntity
  8
0
  6
Continuous
 62
     7
100
AcDbLine
 10
30.74043399245807
 20
61.44635563920937
 30
0.0
 11
30.74043399245807
 21
63.83300108190937
 31
0.0
  0
LINE
  5
749
330
701
100
AcDbEntity
  8
0
  6
Continuous
 62
     7
100
AcDbLine
 10
27.74043399245807
 20
60.04635563920937
 30
0.0
 11
21.74043399245807
 21
60.04635563920937
 31
0.0
  0
LINE
  5
74A
330
701
100
AcDbEntity
  8
0
  6
Continuous
 62
     2
100
AcDbLine
 10
30.425689869758
 20
65.64635563920939
 30
0.0
 11
38.3256898697581
 21
73.54635563920936
 31
0.0
  0
LINE
  5
74B
330
701
100
AcDbEntity
  8
0
  6
Continuous
 62
     2
100
AcDbLine
 10
24.8256898697581
 20
60.04635563920937
 30
0.0
 11
26.22568986975807
 21
61.44635563920937
 31
0.0
  0
LINE
  5
74C
330
701
100
AcDbEntity
  8
0
  6
Continuous
 62
     7
100
AcDbLine
 10
28.74043399245806
 20
61.04635563920936
 30
0.0
 11
28.74043399245806
 21
66.04635563920936
 31
0.0
  0
LINE
  5
74D
330
701
100
AcDbEntity
  8
0
  6
Continuous
 62
     7
100
AcDbLine
 10
27.74043399245807
 20
67.04635563920937
 30
0.0
 11
27.74043399245807
 21
71.54635563920937
 31
0.0
  0
LINE
  5
74E
330
701
100
AcDbEntity
  8
0
  6
Continuous
 62
     7
100
AcDbLine
 10
27.74043399245807
 20
55.54635563920936
 30
0.0
 11
27.74043399245807
 21
60.04635563920937
 31
0.0
  0
LINE
  5
74F
330
701
100
AcDbEntity
  8
0
  6
Continuous
 62
     7
100
AcDbLine
 10
22.26543399245804
 20
65.64635563920939
 30
0.0
 11
21.74043399245807
 21
66.17135563920936
 31
0.0
  0
LINE
  5
750
330
701
100
AcDbEntity
  8
0
  6
Continuous
 62
     7
100
AcDbLine
 10
22.26543399245804
 20
61.44635563920937
 30
0.0
 11
21.74043399245807
 21
60.92135563920937
 31
0.0
  0
LINE
  5
751
330
701
100
AcDbEntity
  8
0
  6
Continuous
 62
     2
100
AcDbLine
 10
27.74043399245807
 20
67.20374044910937
 30
0.0
 11
34.0830491826581
 21
73.54635563920936
 31
0.0
  0
LINE
  5
752
330
701
100
AcDbEntity
  8
0
  6
Continuous
 62
     2
100
AcDbLine
 10
26.18304918265801
 20
65.64635563920939
 30
0.0
 11
27.5830491826581
 21
67.04635563920937
 31
0.0
  0
LINE
  5
753
330
701
100
AcDbEntity
  8
0
  6
Continuous
 62
     7
100
AcDbLine
 10
27.74043399245807
 20
55.54635563920936
 30
0.0
 11
21.74043399245807
 21
55.54635563920936
 31
0.0
  0
LINE
  5
754
330
701
100
AcDbEntity
  8
0
  6
Continuous
 62
     7
100
AcDbLine
 10
23.74043399245806
 20
54.44635563920937
 30
0.0
 11
22.24043399245807
 21
54.44635563920937
 31
0.0
  0
LINE
  5
755
330
701
100
AcDbEntity
  8
0
  6
Continuous
 62
     2
100
AcDbLine
 10
27.74043399245807
 20
71.44638113620937
 30
0.0
 11
29.84040849545806
 21
73.54635563920936
 31
0.0
  0
LINE
  5
756
330
701
100
AcDbEntity
  8
0
  6
Continuous
 62
     2
100
AcDbLine
 10
22.10292124395801
 20
65.80886838770936
 30
0.0
 11
23.34040849545806
 21
67.04635563920937
 31
0.0
  0
LINE
  5
757
330
701
100
AcDbEntity
  8
0
  6
Continuous
 62
     7
100
AcDbLine
 10
23.74043399245806
 20
72.64635563920939
 30
0.0
 11
23.74043399245806
 21
73.54635563920936
 31
0.0
  0
LINE
  5
758
330
701
100
AcDbEntity
  8
0
  6
Continuous
 62
     7
100
AcDbLine
 10
23.74043399245806
 20
53.54635563920936
 30
0.0
 11
23.74043399245806
 21
54.44635563920937
 31
0.0
  0
LINE
  5
759
330
701
100
AcDbEntity
  8
0
  6
Continuous
 62
     7
100
AcDbLine
 10
43.74043399245806
 20
53.54635563920936
 30
0.0
 11
23.74043399245806
 21
53.54635563920936
 31
0.0
  0
LINE
  5
75A
330
701
100
AcDbEntity
  8
0
  6
Continuous
 62
     7
100
AcDbLine
 10
22.26543399245804
 20
61.44635563920937
 30
0.0
 11
22.26543399245804
 21
65.64635563920939
 31
0.0
  0
LINE
  5
75B
330
701
100
AcDbEntity
  8
0
  6
Continuous
 62
     7
100
AcDbLine
 10
21.86543399245806
 20
66.04635563920936
 30
0.0
 11
21.86543399245806
 21
61.04635563920936
 31
0.0
  0
LINE
  5
75C
330
701
100
AcDbEntity
  8
0
  6
Continuous
 62
     7
100
AcDbLine
 10
21.74043399245807
 20
54.94635563920937
 30
0.0
 11
21.74043399245807
 21
72.14635563920939
 31
0.0
  0
LINE
  5
75D
330
701
100
AcDbEntity
  8
0
  6
Continuous
 62
     2
100
AcDbLine
 10
23.59776780835807
 20
71.54635563920937
 30
0.0
 11
25.59776780835807
 21
73.54635563920936
 31
0.0
  0
LINE
  5
75E
330
701
100
AcDbEntity
  8
0
  6
Continuous
 62
     1
100
AcDbLine
 10
102.476669263758
 20
63.46157852930938
 30
0.0
 11
92.56558880255807
 21
53.55049806810939
 31
0.0
  0
LINE
  5
75F
330
701
100
AcDbEntity
  8
0
  6
Continuous
 62
     1
100
AcDbLine
 10
96.33154242475804
 20
61.55909237740937
 30
0.0
 11
89.01789265795798
 21
54.24544261060936
 31
0.0
  0
LINE
  5
760
330
701
100
AcDbEntity
  8
0
  6
Continuous
 62
     1
100
AcDbLine
 10
93.64181600825805
 20
63.11200664800939
 30
0.0
 11
86.32868690085809
 21
55.79887754070938
 31
0.0
  0
LINE
  5
761
330
701
100
AcDbEntity
  8
0
  6
Continuous
 62
     1
100
AcDbLine
 10
87.23622386915804
 20
60.94905519600939
 30
0.0
 11
84.30350576395801
 21
58.01633709090936
 31
0.0
  0
LINE
  5
762
330
701
100
AcDbEntity
  8
0
  6
Continuous
 62
     1
100
AcDbLine
 10
92.75650450635806
 20
66.46933583320936
 30
0.0
 11
92.49051054465804
 21
66.20334187160938
 31
0.0
  0
LINE
  5
763
330
701
100
AcDbEntity
  8
0
  6
Continuous
 62
     1
100
AcDbLine
 10
84.50474859015811
 20
62.46022060420938
 30
0.0
 11
82.98301353835801
 21
60.93848555240936
 31
0.0
  0
LINE
  5
764
330
701
100
AcDbEntity
  8
0
  6
Continuous
 62
     1
100
AcDbLine
 10
95.24041252845803
 20
73.19588454250936
 30
0.0
 11
91.79507958825809
 21
69.75055160220938
 31
0.0
  0
LINE
  5
765
330
701
100
AcDbEntity
  8
0
  6
Continuous
 62
     1
100
AcDbLine
 10
91.24891336785811
 20
73.44702606900938
 30
0.0
 11
89.13553024935811
 21
71.33364295050938
 31
0.0
  0
DIMENSION
  5
766
330
701
100
AcDbEntity
  8
DIM
100
AcDbDimension
280
     0
  2
*D6
 10
21.74043399245807
 20
76.98870721907923
 30
0.0
 11
24.74043399245807
 21
78.86470721907923
 31
0.0
 12
-508.5085379777527
 22
-76.5846474734576
 32
0.0
 71
     5
 42
6.0
 73
     0
 74
     0
 75
     0
  3
STANDARD
100
AcDbAlignedDimension
 13
27.74043399245807
 23
71.04635563920936
 33
0.0
 14
21.74043399245807
 24
72.64635563920939
 34
0.0
100
AcDbRotatedDimension
1001
ACAD
1000
DSTYLE
1002
{
1070
    48
1040
0.000000001
1070
   146
1040
0.7
1070
   172
1070
     1
1002
}
  0
DIMENSION
  5
767
330
701
100
AcDbEntity
  8
DIM
100
AcDbDimension
280
     0
  2
*D2
 10
7.943803139226702
 20
55.54635563920943
 30
0.0
 11
6.067803139226725
 21
63.54635563920948
 31
0.0
 12
-508.5085379777527
 22
-76.5846474734576
 32
0.0
  1
%%C<>
 71
     5
 42
15.99999999999994
 73
     0
 74
     0
 75
     0
  3
STANDARD
100
AcDbAlignedDimension
 13
21.74043399245807
 23
71.54635563920937
 33
0.0
 14
21.74043399245807
 24
55.54635563920943
 34
0.0
 50
90.0
100
AcDbRotatedDimension
1001
ACAD
1000
DSTYLE
1002
{
1070
    48
1040
0.000000001
1070
   146
1040
0.7
1070
   172
1070
     1
1002
}
  0
DIMENSION
  5
768
330
701
100
AcDbEntity
  8
DIM
100
AcDbDimension
280
     0
  2
*D3
 10
18.41644469925995
 20
61.04635563920936
 30
0.0
 11
16.54044469925998
 21
63.54635563920945
 31
0.0
 12
-508.5085379777527
 22
-76.5846474734576
 32
0.0
  1
M<>
 71
     5
 42
5.0
 73
     0
 74
     0
 75
     0
  3
STANDARD
100
AcDbAlignedDimension
 13
21.86543399245806
 23
66.04635563920936
 33
0.0
 14
21.86543399245806
 24
61.04635563920936
 34
0.0
 50
90.0
100
AcDbRotatedDimension
1001
ACAD
1000
DSTYLE
1002
{
1070
    48
1040
0.000000001
1070
   146
1040
0.7
1070
   172
1070
     1
1002
}
  0
DIMENSION
  5
769
330
701
100
AcDbEntity
  8
DIM
100
AcDbDimension
280
     0
  2
*D1
 10
3.125999958971533
 20
54.44635563920943
 30
0.0
 11
1.2499999589715
 21
63.5463556392095
 31
0.0
 12
-508.5085379777527
 22
-76.5846474734576
 32
0.0
  1
%%C18.8
 71
     5
 42
18.19999999999996
 73
     0
 74
     0
 75
     0
  3
STANDARD
100
AcDbAlignedDimension
 13
21.74043399245807
 23
72.64635563920939
 33
0.0
 14
21.74043399245807
 24
54.44635563920943
 34
0.0
 50
90.0
100
AcDbRotatedDimension
1001
ACAD
1000
DSTYLE
1002
{
1070
    48
1040
0.000000001
1070
   146
1040
0.7
1070
   172
1070
     1
1002
}
  0
DIMENSION
  5
76A
330
701
100
AcDbEntity
  8
DIM
100
AcDbDimension
280
     0
  2
*D5
 10
21.74043399245807
 20
49.56710834720448
 30
0.0
 11
15.48423713055683
 21
51.44310834720449
 31
0.0
 12
-508.5085379777527
 22
-76.5846474734576
 32
0.0
 71
     5
 42
2.0
 73
     0
 74
     0
 75
     0
  3
STANDARD
100
AcDbAlignedDimension
 13
23.74043399245806
 23
53.54635563920942
 33
0.0
 14
21.74043399245807
 24
54.44635563920943
 34
0.0
100
AcDbRotatedDimension
1001
ACAD
1000
DSTYLE
1002
{
1070
    48
1040
0.000000001
1070
   146
1040
0.7
1070
   172
1070
     1
1002
}
  0
DIMENSION
  5
76B
330
701
100
AcDbEntity
  8
DIM
100
AcDbDimension
280
     0
  2
*D4
 10
12.78411034923238
 20
60.04635563920939
 30
0.0
 11
10.9081103492324
 21
63.54635563920945
 31
0.0
 12
-508.5085379777527
 22
-76.5846474734576
 32
0.0
  1
%%C<>
 71
     5
 42
6.999999999999971
 73
     0
 74
     0
 75
     0
  3
STANDARD
100
AcDbAlignedDimension
 13
21.74043399245807
 23
67.04635563920937
 33
0.0
 14
21.74043399245807
 24
60.04635563920939
 34
0.0
 50
90.0
100
AcDbRotatedDimension
1001
ACAD
1000
DSTYLE
1002
{
1070
    48
1040
0.000000001
1070
   146
1040
0.7
1070
   172
1070
     1
1002
}
  0
DIMENSION
  5
76C
330
701
100
AcDbEntity
  8
DIM
100
AcDbDimension
280
     0
  2
*D7
 10
51.81980567518405
 20
53.54635563920942
 30
0.0
 11
51.81980567518405
 21
63.54635563920948
 31
0.0
 12
-508.5085379777527
 22
-76.5846474734576
 32
0.0
 70
   128
  1
%%c<>
 71
     5
 42
19.99999999999994
 73
     0
 74
     0
 75
     0
  3
STANDARD
100
AcDbAlignedDimension
 13
43.74043399245806
 23
73.54635563920936
 33
0.0
 14
43.74043399245806
 24
53.54635563920942
 34
0.0
 50
90.0
100
AcDbRotatedDimension
1001
ACAD
1000
DSTYLE
1002
{
1070
    48
1040
0.000000001
1070
   146
1040
0.7
1070
   172
1070
     1
1002
}
  0
LINE
  5
76D
330
701
100
AcDbEntity
  8
CENT
100
AcDbLine
 10
19.67795275814706
 20
63.54635563920936
 30
0.0
 11
45.99464248576521
 21
63.5463556392094
 31
0.0
  0
DIMENSION
  5
76E
330
701
100
AcDbEntity
  8
DIM
100
AcDbDimension
280
     0
  2
*D8
 10
21.74043399245807
 20
83.03557447932911
 30
0.0
 11
32.74043399245807
 21
84.91157447932911
 31
0.0
 12
-508.5085379777527
 22
-76.5846474734576
 32
0.0
 71
     5
 42
22.0
 73
     0
 74
     0
 75
     0
  3
STANDARD
100
AcDbAlignedDimension
 13
43.74043399245806
 23
70.47581838770938
 33
0.0
 14
21.74043399245807
 24
71.54635563920937
 34
0.0
100
AcDbRotatedDimension
1001
ACAD
1000
DSTYLE
1002
{
1070
    48
1040
0.000000001
1070
   146
1040
0.7
1070
   172
1070
     1
1002
}
  0
LINE
  5
76F
330
701
100
AcDbEntity
  8
CENT
100
AcDbLine
 10
19.26310701290026
 20
18.82951488526208
 30
0.0
 11
46.66971494082156
 21
18.82951488526208
 31
0.0
  0
LINE
  5
770
330
701
100
AcDbEntity
  8
CENT
100
AcDbLine
 10
33.74043399245795
 20
7.156334943946419
 30
0.0
 11
33.74043399245795
 21
30.50269482657774
 31
0.0
  0
DIMENSION
  5
771
330
701
100
AcDbEntity
  8
DIM
100
AcDbDimension
280
     0
  2
*D9
 10
33.74043399245795
 20
1.000000046034017
 30
0.0
 11
38.74043399245795
 21
2.876000046034022
 31
0.0
 12
-508.5085379777527
 22
-76.5846474734576
 32
0.0
 71
     5
 42
10.00000000000011
 73
     0
 74
     0
 75
     0
  3
STANDARD
100
AcDbAlignedDimension
 13
43.74043399245806
 23
8.829514885312093
 33
0.0
 14
33.74043399245795
 24
7.156334943946419
 34
0.0
100
AcDbRotatedDimension
1001
ACAD
1000
DSTYLE
1002
{
1070
    48
1040
0.000000001
1070
   146
1040
0.7
1070
   172
1070
     1
1002
}
  0
LINE
  5
772
330
701
100
AcDbEntity
  8
CENT
100
AcDbLine
 10
33.74043399245795
 20
51.87317569789371
 30
0.0
 11
33.74043399245795
 21
75.21953558052505
 31
0.0
  0
LINE
  5
773
330
701
100
AcDbEntity
  8
CENT
100
AcDbLine
 10
80.77686365445186
 20
63.54635563920936
 30
0.0
 11
104.4701513964642
 21
63.54635563920936
 31
0.0
  0
LINE
  5
774
330
701
100
AcDbEntity
  8
CENT
100
AcDbLine
 10
92.62350752545797
 20
75.39299951021547
 30
0.0
 11
92.62350752545797
 21
51.69971176820325
 31
0.0
  0
LINE
  5
775
330
701
100
AcDbEntity
  8
CENT
100
AcDbLine
 10
82.36401298357952
 20
57.62303370370625
 30
0.0
 11
102.8830020673366
 21
69.46967757471242
 31
0.0
  0
LINE
  5
776
330
701
100
AcDbEntity
  8
CENT
100
AcDbLine
 10
102.8830020673364
 20
57.62303370370625
 30
0.0
 11
82.36401298357931
 21
69.46967757471242
 31
0.0
  0
DIMENSION
  5
777
330
701
100
AcDbEntity
  8
DIM
100
AcDbDimension
280
     0
  2
*D10
 10
108.3723150350202
 20
66.86543120237439
 30
0.0
 11
112.0670237387373
 21
60.46600800836938
 31
0.0
 12
-508.5085379777527
 22
-76.5846474734576
 32
0.0
 70
   128
  1
%%c<>
 71
     5
 42
10.00000000004817
 73
     0
 74
     0
 75
     0
 51
150.0
  3
STANDARD
100
AcDbAlignedDimension
 13
97.62350752545808
 23
72.20660967710938
 33
0.0
 14
102.6235075255287
 24
63.54635563925012
 34
0.0
 50
300.0000000000001
100
AcDbRotatedDimension
1001
ACAD
1000
DSTYLE
1002
{
1070
    48
1040
0.000000001
1070
   146
1040
0.7
1070
   172
1070
     1
1002
}
  0
DIMENSION
  5
778
330
701
100
AcDbEntity
  8
DIM
100
AcDbDimension
280
     0
  2
*D11
 10
108.4589490085257
 20
56.11856643025245
 30
0.0
 11
105.3558854991045
 21
56.49323008777514
 31
0.0
 12
-508.5085379777527
 22
-76.5846474734576
 32
0.0
 71
     5
 42
4.999999999907799
 73
     0
 74
     0
 75
     0
 51
330.0
  3
STANDARD
100
AcDbAlignedDimension
 13
96.95363454445795
 23
66.04635563925928
 33
0.0
 14
101.2837615633025
 24
68.54635563920925
 34
0.0
 50
30.00000000000055
100
AcDbRotatedDimension
1001
ACAD
1000
DSTYLE
1002
{
1070
    48
1040
0.000000001
1070
   146
1040
0.7
1070
   172
1070
     1
1002
}
  0
DIMENSION
  5
779
330
701
100
AcDbEntity
  8
DIM
100
AcDbDimension
280
     0
  2
*D12
 10
111.585768691311
 20
50.70275587356182
 30
0.0
 11
107.6166797780937
 21
50.57741953107774
 31
0.0
 12
-508.5085379777527
 22
-76.5846474734576
 32
0.0
 71
     5
 42
6.999999999934743
 73
     0
 74
     0
 75
     0
 51
330.0
  3
STANDARD
100
AcDbAlignedDimension
 13
95.22158373685796
 23
65.04635563925927
 33
0.0
 14
101.2837615632693
 24
68.54635563926684
 34
0.0
 50
30.00000000000055
100
AcDbRotatedDimension
1001
ACAD
1000
DSTYLE
1002
{
1070
    48
1040
0.000000001
1070
   146
1040
0.7
1070
   172
1070
     1
1002
}
  0
DIMENSION
  5
77A
330
701
100
AcDbEntity
  8
DIM
100
AcDbDimension
280
     0
  2
*D13
 10
92.49051054465804
 20
69.31599811120938
 30
0.0
 11
76.76312168116282
 21
63.76011616405432
 31
0.0
 12
-508.5085379777527
 22
-76.5846474734576
 32
0.0
 70
   130
 71
     5
 42
0.0698131700836962
 73
     0
 74
     0
 75
     0
  3
STANDARD
100
AcDb2LineAngularDimension
 13
85.79338050655804
 23
61.71622862030938
 33
0.0
 14
87.56035208365801
 24
60.77671316730937
 34
0.0
 15
90.79338050655804
 25
70.3764826582094
 35
0.0
 16
81.35939630751364
 26
72.09481754085437
 36
0.0
1001
ACAD
1000
DSTYLE
1002
{
1070
    48
1040
0.000000001
1070
   146
1040
0.7
1070
   172
1070
     1
1002
}
  0
DIMENSION
  5
77B
330
701
100
AcDbEntity
  8
DIM
100
AcDbDimension
280
     0
  2
*D14
 10
102.8830020673366
 20
69.46967757471242
 30
0.0
 11
92.62350752545797
 21
84.98354220656649
 31
0.0
 12
-508.5085379777527
 22
-76.5846474734576
 32
0.0
 70
     2
 71
     5
 42
2.094395102393196
 73
     0
 74
     0
 75
     0
  3
STANDARD
100
AcDb2LineAngularDimension
 13
102.8830020673364
 23
57.62303370370625
 33
0.0
 14
82.36401298357931
 24
69.46967757471242
 34
0.0
 15
82.36401298357952
 25
57.62303370370625
 35
0.0
 16
99.31382735884563
 26
81.92785831037127
 36
0.0
1001
ACAD
1000
DSTYLE
1002
{
1070
    48
1040
0.000000001
1070
   146
1040
0.7
1070
   172
1070
     1
1002
}
  0
DIMENSION
  5
77C
330
701
100
AcDbEntity
  8
DIM
100
AcDbDimension
280
     0
  2
*D15
 10
43.74043399245806
 20
47.95057227255654
 30
0.0
 11
38.74043399245795
 21
49.82657227255654
 31
0.0
 12
-508.5085379777527
 22
-76.5846474734576
 32
0.0
 71
     5
 42
10.00000000000011
 73
     0
 74
     0
 75
     0
  3
STANDARD
100
AcDbAlignedDimension
 13
33.74043399245795
 23
51.87317569789371
 33
0.0
 14
43.74043399245806
 24
56.2663255638823
 34
0.0
100
AcDbRotatedDimension
1001
ACAD
1000
DSTYLE
1002
{
1070
    48
1040
0.000000001
1070
   146
1040
0.7
1070
   172
1070
     1
1002
}
  0
LINE
  5
77D
330
701
100
AcDbEntity
  8
0
100
AcDbLine
 10
33.74043399245795
 20
87.3503834953026
 30
0.0
 11
33.74043399245806
 21
91.73625778031036
 31
0.0
  0
LINE
  5
77E
330
701
100
AcDbEntity
  8
0
100
AcDbLine
 10
33.74043399245795
 20
46.2646385015023
 30
0.0
 11
33.74043399245795
 21
42.54647160690979
 31
0.0
  0
LEADER
  5
77F
330
701
100
AcDbEntity
  8
DIM
100
AcDbLeader
  3
STANDARD
 76
     2
 10
39.52239788951544
 20
91.73625778031036
 30
0.0
 10
33.74043399245806
 20
91.73625778031036
 30
0.0
1001
ACAD
1000
DSTYLE
1002
{
1070
   147
1040
0.626
1070
    77
1070
     0
1070
    48
1040
0.000000001
1070
   146
1040
0.7
1070
   172
1070
     1
1002
}
  0
LEADER
  5
780
330
701
100
AcDbEntity
  8
DIM
100
AcDbLeader
  3
STANDARD
 76
     2
 10
39.52239788951533
 20
42.54647160690979
 30
0.0
 10
33.74043399245795
 20
42.54647160690979
 30
0.0
1001
ACAD
1000
DSTYLE
1002
{
1070
   147
1040
0.626
1070
    77
1070
     0
1070
    48
1040
0.000000001
1070
   146
1040
0.7
1070
   172
1070
     1
1002
}
  0
LINE
  5
781
330
701
100
AcDbEntity
  8
0
  6
Continuous
 62
     7
100
AcDbLine
 10
21.74043399245807
 20
72.14635563920939
 30
0.0
 11
22.24043399245807
 21
72.64635563920939
 31
0.0
  0
LINE
  5
782
330
701
100
AcDbEntity
  8
0
  6
Continuous
 62
     7
100
AcDbLine
 10
21.74043399245807
 20
54.94635563920937
 30
0.0
 11
22.24043399245807
 21
54.44635563920937
 31
0.0
  0
LINE
  5
783
330
701
100
AcDbEntity
  8
0
  6
Continuous
 62
     7
100
AcDbLine
 10
22.24043399245807
 20
27.92951488531209
 30
0.0
 11
21.74043399245807
 21
27.42951488531209
 31
0.0
  0
LINE
  5
784
330
701
100
AcDbEntity
  8
0
  6
Continuous
 62
     7
100
AcDbLine
 10
21.74043399245795
 20
10.22951488531208
 30
0.0
 11
22.24043399245795
 21
9.729514885312084
 31
0.0
  0
LINE
  5
785
330
701
100
AcDbEntity
  8
0
100
AcDbLine
 10
22.24043399245807
 20
27.92951488531209
 30
0.0
 11
22.24043399245807
 21
9.729514885312084
 31
0.0
  0
LEADER
  5
786
330
701
100
AcDbEntity
  8
DIM
100
AcDbLeader
  3
STANDARD
 73
     0
 74
     0
 75
     1
 40
2.5
 41
9.541650471703706
 76
     3
 10
22.24043399245807
 20
27.92951488531209
 30
0.0
 10
31.75187218347601
 20
33.85126391813606
 30
0.0
 10
31.931872183476
 20
33.85126391813606
 30
0.0
340
787
213
0.0
223
-1.25
233
0.0
1001
ACAD
1000
DSTYLE
1002
{
1070
   147
1040
0.626
1070
    77
1070
     0
1070
    48
1040
0.000000001
1070
   146
1040
0.7
1070
   172
1070
     1
1002
}
  0
MTEXT
  5
787
102
{ACAD_REACTORS
330
786
102
}
330
701
100
AcDbEntity
  8
DIM
 62
     7
100
AcDbMText
 10
32.55787218347598
 20
35.10126391813606
 30
0.0
 40
2.5
 41
0.0
 46
0.0
 71
     1
 72
     1
  1
0.5x45%%d
  7
DIM
 73
     1
 44
1.0
  0
ENDBLK
  5
789
330
701
100
AcDbEntity
  8
0
100
AcDbBlockEnd
  0
BLOCK
  5
3014
330
3013
100
AcDbEntity
  8
0
100
AcDbBlockBegin
  2
GG
 70
     0
 10
0.0
 20
0.0
 30
0.0
  3
GG
  1

  0
MTEXT
  5
3015
330
3013
100
AcDbEntity
  8
粗实线Ａ
  6
Continuous
 62
     7
100
AcDbMText
 10
-2.419738532984865
 20
7.144005455274964
 30
0.0
 40
2.4
 41
3.155668492559925
 46
0.0
 71
     1
 72
     5
  1
3.2
 73
     1
 44
1.0
  0
LINE
  5
3016
330
3013
100
AcDbEntity
  8
粗实线Ａ
  6
Continuous
 62
     7
100
AcDbLine
 10
-2.192345859561555
 20
3.797254416523912
 30
0.0
 11
2.19234585956201
 21
3.797254416523912
 31
0.0
  0
LINE
  5
3017
330
3013
100
AcDbEntity
  8
粗实线Ａ
  6
Continuous
 62
     7
100
AcDbLine
 10
-2.192345859561555
 20
3.797254416523912
 30
0.0
 11
0.0
 21
0.0
 31
0.0
  0
LINE
  5
3018
330
3013
100
AcDbEntity
  8
粗实线Ａ
  6
Continuous
 62
     7
100
AcDbLine
 10
0.0
 20
0.0
 30
0.0
 11
4.50937034107801
 21
7.810458540891715
 31
0.0
  0
ENDBLK
  5
3019
330
3013
100
AcDbEntity
  8
0
100
AcDbBlockEnd
  0
BLOCK
  5
EF3D
330
EF33
100
AcDbEntity
  8
0
100
AcDbBlockBegin
  2
*D27
 70
     1
 10
0.0
 20
0.0
 30
0.0
  3
*D27
  1

  0
LINE
  5
EF6B
330
EF33
100
AcDbEntity
  8
标注线Ａ
440
 16777216
370
    25
100
AcDbLine
 10
3561.83652741827
 20
2185.815075683234
 30
0.0
 11
3561.83652741827
 21
2203.154140225374
 31
0.0
  0
LINE
  5
EF6C
330
EF33
100
AcDbEntity
  8
标注线Ａ
440
 16777216
370
    25
100
AcDbLine
 10
3674.377569693378
 20
2185.815075683234
 30
0.0
 11
3674.377569693378
 21
2203.154140225374
 31
0.0
  0
LINE
  5
EF6D
330
EF33
100
AcDbEntity
  8
标注线Ａ
 62
     1
440
 16777216
370
    25
100
AcDbLine
 10
3563.836527418271
 20
2201.654140225374
 30
0.0
 11
3672.377569693378
 21
2201.654140225374
 31
0.0
  0
MTEXT
  5
EF6E
330
EF33
100
AcDbEntity
  8
标注线Ａ
 62
     7
440
 16777216
100
AcDbMText
 10
3617.927143715954
 20
2203.404140225374
 30
0.0
 40
2.5
 41
0.0
 46
0.0
 71
     5
 72
     1
  1
\A1;200
  7
DIM
 73
     1
 44
1.0
  0
SOLID
  5
EF6F
330
EF33
100
AcDbEntity
  8
标注线Ａ
 62
     1
440
 16777216
100
AcDbTrace
 10
3563.836527418271
 20
2201.987473558708
 30
0.0
 11
3563.836527418271
 21
2201.320806892041
 31
0.0
 12
3561.83652741827
 22
2201.654140225374
 32
0.0
 13
3561.83652741827
 23
2201.654140225374
 33
0.0
  0
SOLID
  5
EF70
330
EF33
100
AcDbEntity
  8
标注线Ａ
 62
     1
440
 16777216
100
AcDbTrace
 10
3672.377569693378
 20
2201.987473558708
 30
0.0
 11
3672.377569693378
 21
2201.320806892041
 31
0.0
 12
3674.377569693378
 22
2201.654140225374
 32
0.0
 13
3674.377569693378
 23
2201.654140225374
 33
0.0
  0
POINT
  5
EF71
330
EF33
100
AcDbEntity
  8
DEFPOINTS
 62
     0
440
 16777216
100
AcDbPoint
 10
3561.83652741827
 20
2185.315075683234
 30
0.0
  0
POINT
  5
EF72
330
EF33
100
AcDbEntity
  8
DEFPOINTS
 62
     0
440
 16777216
100
AcDbPoint
 10
3674.377569693378
 20
2185.315075683234
 30
0.0
  0
POINT
  5
EF73
330
EF33
100
AcDbEntity
  8
DEFPOINTS
 62
     0
440
 16777216
100
AcDbPoint
 10
3674.377569693378
 20
2201.654140225374
 30
0.0
  0
ENDBLK
  5
EF3E
330
EF33
100
AcDbEntity
  8
0
100
AcDbBlockEnd
  0
BLOCK
  5
EF4A
330
EF40
100
AcDbEntity
  8
0
100
AcDbBlockBegin
  2
*D28
 70
     1
 10
0.0
 20
0.0
 30
0.0
  3
*D28
  1

  0
LINE
  5
EF62
330
EF40
100
AcDbEntity
  8
标注线Ａ
440
 16777216
370
    25
100
AcDbLine
 10
3561.336527418271
 20
2185.315075683234
 30
0.0
 11
3550.821145859431
 21
2185.315075683234
 31
0.0
  0
LINE
  5
EF63
330
EF40
100
AcDbEntity
  8
标注线Ａ
440
 16777216
370
    25
100
AcDbLine
 10
3563.688527418261
 20
2171.20307568329
 30
0.0
 11
3550.821145859431
 21
2171.20307568329
 31
0.0
  0
LINE
  5
EF64
330
EF40
100
AcDbEntity
  8
标注线Ａ
 62
     1
440
 16777216
370
    25
100
AcDbLine
 10
3552.321145859431
 20
2183.315075683234
 30
0.0
 11
3552.321145859431
 21
2173.203075683291
 31
0.0
  0
MTEXT
  5
EF65
330
EF40
100
AcDbEntity
  8
标注线Ａ
 62
     7
440
 16777216
100
AcDbMText
 10
3550.571145859431
 20
2178.361315074567
 30
0.0
 40
2.5
 41
0.0
 46
0.0
 71
     5
 72
     1
  1
\A1;30
  7
DIM
 11
0.0000000000000001
 21
1.0
 31
0.0
 73
     1
 44
1.0
  0
SOLID
  5
EF66
330
EF40
100
AcDbEntity
  8
标注线Ａ
 62
     1
440
 16777216
100
AcDbTrace
 10
3551.987812526097
 20
2183.315075683234
 30
0.0
 11
3552.654479192765
 21
2183.315075683234
 31
0.0
 12
3552.321145859431
 22
2185.315075683234
 32
0.0
 13
3552.321145859431
 23
2185.315075683234
 33
0.0
  0
SOLID
  5
EF67
330
EF40
100
AcDbEntity
  8
标注线Ａ
 62
     1
440
 16777216
100
AcDbTrace
 10
3551.987812526097
 20
2173.203075683291
 30
0.0
 11
3552.654479192765
 21
2173.203075683291
 31
0.0
 12
3552.321145859431
 22
2171.20307568329
 32
0.0
 13
3552.321145859431
 23
2171.20307568329
 33
0.0
  0
POINT
  5
EF68
330
EF40
100
AcDbEntity
  8
DEFPOINTS
 62
     0
440
 16777216
100
AcDbPoint
 10
3561.83652741827
 20
2185.315075683234
 30
0.0
  0
POINT
  5
EF69
330
EF40
100
AcDbEntity
  8
DEFPOINTS
 62
     0
440
 16777216
100
AcDbPoint
 10
3564.188527418261
 20
2171.20307568329
 30
0.0
  0
POINT
  5
EF6A
330
EF40
100
AcDbEntity
  8
DEFPOINTS
 62
     0
440
 16777216
100
AcDbPoint
 10
3552.321145859431
 20
2171.20307568329
 30
0.0
  0
ENDBLK
  5
EF4B
330
EF40
100
AcDbEntity
  8
0
100
AcDbBlockEnd
  0
BLOCK
  5
EF57
330
EF4D
100
AcDbEntity
  8
0
100
AcDbBlockBegin
  2
*D29
 70
     1
 10
0.0
 20
0.0
 30
0.0
  3
*D29
  1

  0
LINE
  5
EF59
330
EF4D
100
AcDbEntity
  8
标注线Ａ
440
 16777216
370
    25
100
AcDbLine
 10
3561.336527418271
 20
2152.819592891328
 30
0.0
 11
3551.244577643068
 21
2152.819592891328
 31
0.0
  0
LINE
  5
EF5A
330
EF4D
100
AcDbEntity
  8
标注线Ａ
440
 16777216
370
    25
100
AcDbLine
 10
3568.862927418955
 20
2115.187592891479
 30
0.0
 11
3551.244577643068
 21
2115.187592891479
 31
0.0
  0
LINE
  5
EF5B
330
EF4D
100
AcDbEntity
  8
标注线Ａ
 62
     1
440
 16777216
370
    25
100
AcDbLine
 10
3552.744577643068
 20
2150.819592891329
 30
0.0
 11
3552.744577643068
 21
2117.187592891479
 31
0.0
  0
MTEXT
  5
EF5C
330
EF4D
100
AcDbEntity
  8
标注线Ａ
 62
     7
440
 16777216
100
AcDbMText
 10
3550.994577643068
 20
2134.430783253017
 30
0.0
 40
2.5
 41
0.0
 46
0.0
 71
     5
 72
     1
  1
\A1;85
  7
DIM
 11
0.0000000000000001
 21
1.0
 31
0.0
 73
     1
 44
1.0
  0
SOLID
  5
EF5D
330
EF4D
100
AcDbEntity
  8
标注线Ａ
 62
     1
440
 16777216
100
AcDbTrace
 10
3552.411244309734
 20
2150.819592891329
 30
0.0
 11
3553.077910976401
 21
2150.819592891329
 31
0.0
 12
3552.744577643068
 22
2152.819592891328
 32
0.0
 13
3552.744577643068
 23
2152.819592891328
 33
0.0
  0
SOLID
  5
EF5E
330
EF4D
100
AcDbEntity
  8
标注线Ａ
 62
     1
440
 16777216
100
AcDbTrace
 10
3552.411244309734
 20
2117.187592891479
 30
0.0
 11
3553.077910976401
 21
2117.187592891479
 31
0.0
 12
3552.744577643068
 22
2115.187592891479
 32
0.0
 13
3552.744577643068
 23
2115.187592891479
 33
0.0
  0
POINT
  5
EF5F
330
EF4D
100
AcDbEntity
  8
DEFPOINTS
 62
     0
440
 16777216
100
AcDbPoint
 10
3561.83652741827
 20
2152.819592891328
 30
0.0
  0
POINT
  5
EF60
330
EF4D
100
AcDbEntity
  8
DEFPOINTS
 62
     0
440
 16777216
100
AcDbPoint
 10
3569.362927418956
 20
2115.187592891479
 30
0.0
  0
POINT
  5
EF61
330
EF4D
100
AcDbEntity
  8
DEFPOINTS
 62
     0
440
 16777216
100
AcDbPoint
 10
3552.744577643068
 20
2115.187592891479
 30
0.0
  0
ENDBLK
  5
EF58
330
EF4D
100
AcDbEntity
  8
0
100
AcDbBlockEnd
  0
BLOCK
  5
EF83
330
EF82
100
AcDbEntity
  8
0
100
AcDbBlockBegin
  2
*D30
 70
     1
 10
0.0
 20
0.0
 30
0.0
  3
*D30
  1

  0
LINE
  5
EF84
330
EF82
100
AcDbEntity
  8
0
 62
     0
370
    13
100
AcDbLine
 10
544.2186241718058
 20
20.36576346429655
 30
0.0
 11
544.2186241718058
 21
33.36223239761461
 31
0.0
  0
LINE
  5
EF85
330
EF82
100
AcDbEntity
  8
0
 62
     0
370
    13
100
AcDbLine
 10
656.759666446914
 20
20.36576346429655
 30
0.0
 11
656.759666446914
 21
33.36223239761461
 31
0.0
  0
LINE
  5
EF86
330
EF82
100
AcDbEntity
  8
0
 62
     0
370
    13
100
AcDbLine
 10
551.2186241718057
 20
28.36223239761461
 30
0.0
 11
649.759666446914
 21
28.36223239761461
 31
0.0
  0
SOLID
  5
EF87
330
EF82
100
AcDbEntity
  8
0
 62
     0
100
AcDbTrace
 10
551.2186241718057
 20
29.52889906428127
 30
0.0
 11
551.2186241718057
 21
27.19556573094794
 31
0.0
 12
544.2186241718058
 22
28.36223239761461
 32
0.0
 13
544.2186241718058
 23
28.36223239761461
 33
0.0
  0
SOLID
  5
EF88
330
EF82
100
AcDbEntity
  8
0
 62
     0
100
AcDbTrace
 10
649.759666446914
 20
29.52889906428127
 30
0.0
 11
649.759666446914
 21
27.19556573094794
 31
0.0
 12
656.759666446914
 22
28.36223239761461
 32
0.0
 13
656.759666446914
 23
28.36223239761461
 33
0.0
  0
MTEXT
  5
EF89
330
EF82
100
AcDbEntity
  8
0
 62
     7
100
AcDbMText
 10
600.4891453093598
 20
35.0824704928527
 30
0.0
 40
8.0
 41
0.0
 46
0.0
 71
     5
 72
     1
  1
200/300
  7
DIM
 73
     1
 44
1.0
  0
POINT
  5
EF8A
330
EF82
100
AcDbEntity
  8
DEFPOINTS
 62
     0
100
AcDbPoint
 10
544.2186241718058
 20
14.36576346429655
 30
0.0
  0
POINT
  5
EF8B
330
EF82
100
AcDbEntity
  8
DEFPOINTS
 62
     0
100
AcDbPoint
 10
656.759666446914
 20
14.36576346429655
 30
0.0
  0
POINT
  5
EF8C
330
EF82
100
AcDbEntity
  8
DEFPOINTS
 62
     0
100
AcDbPoint
 10
656.759666446914
 20
28.36223239761461
 30
0.0
  0
ENDBLK
  5
EF8D
330
EF82
100
AcDbEntity
  8
0
100
AcDbBlockEnd
  0
BLOCK
  5
EF8F
330
EF8E
100
AcDbEntity
  8
0
100
AcDbBlockBegin
  2
*D31
 70
     1
 10
0.0
 20
0.0
 30
0.0
  3
*D31
  1

  0
LINE
  5
EF90
330
EF8E
100
AcDbEntity
  8
0
 62
     0
370
    13
100
AcDbLine
 10
538.9075090224519
 20
0.9426483149989502
 30
0.0
 11
514.6523290923133
 21
0.9426483149989572
 31
0.0
  0
LINE
  5
EF91
330
EF8E
100
AcDbEntity
  8
0
 62
     0
370
    13
100
AcDbLine
 10
538.2186241718057
 20
14.36576346429655
 30
0.0
 11
514.6523290923133
 21
14.36576346429656
 31
0.0
  0
LINE
  5
EF92
330
EF8E
100
AcDbEntity
  8
0
 62
     0
370
    13
100
AcDbLine
 10
519.6523290923133
 20
-6.057351685001044
 30
0.0
 11
519.6523290923133
 21
-13.05735168500104
 31
0.0
  0
LINE
  5
EF93
330
EF8E
100
AcDbEntity
  8
0
 62
     0
370
    13
100
AcDbLine
 10
519.6523290923133
 20
21.36576346429656
 30
0.0
 11
519.6523290923133
 21
28.36576346429655
 31
0.0
  0
LINE
  5
EF94
330
EF8E
100
AcDbEntity
  8
0
 62
     0
370
    13
100
AcDbLine
 10
519.6523290923133
 20
0.9426483149989557
 30
0.0
 11
519.6523290923133
 21
14.36576346429655
 31
0.0
  0
SOLID
  5
EF95
330
EF8E
100
AcDbEntity
  8
0
 62
     0
100
AcDbTrace
 10
518.4856624256467
 20
-6.057351685001044
 30
0.0
 11
520.81899575898
 21
-6.057351685001044
 31
0.0
 12
519.6523290923133
 22
0.9426483149989557
 32
0.0
 13
519.6523290923133
 23
0.9426483149989557
 33
0.0
  0
SOLID
  5
EF96
330
EF8E
100
AcDbEntity
  8
0
 62
     0
100
AcDbTrace
 10
518.4856624256467
 20
21.36576346429656
 30
0.0
 11
520.81899575898
 21
21.36576346429655
 31
0.0
 12
519.6523290923133
 22
14.36576346429655
 32
0.0
 13
519.6523290923133
 23
14.36576346429655
 33
0.0
  0
MTEXT
  5
EF97
330
EF8E
100
AcDbEntity
  8
0
 62
     7
100
AcDbMText
 10
515.0273290923133
 20
7.654205889647839
 30
0.0
 40
8.0
 41
0.0
 46
0.0
 71
     5
 72
     1
  1
30
  7
DIM
 11
0.0000000000000001
 21
1.0
 31
0.0
 73
     1
 44
1.0
  0
POINT
  5
EF98
330
EF8E
100
AcDbEntity
  8
DEFPOINTS
 62
     0
100
AcDbPoint
 10
544.9075090224519
 20
0.9426483149989486
 30
0.0
  0
POINT
  5
EF99
330
EF8E
100
AcDbEntity
  8
DEFPOINTS
 62
     0
100
AcDbPoint
 10
544.2186241718058
 20
14.36576346429655
 30
0.0
  0
POINT
  5
EF9A
330
EF8E
100
AcDbEntity
  8
DEFPOINTS
 62
     0
100
AcDbPoint
 10
519.6523290923133
 20
14.36576346429655
 30
0.0
  0
ENDBLK
  5
EF9B
330
EF8E
100
AcDbEntity
  8
0
100
AcDbBlockEnd
  0
BLOCK
  5
EF9D
330
EF9C
100
AcDbEntity
  8
0
100
AcDbBlockBegin
  2
*D32
 70
     1
 10
0.0
 20
0.0
 30
0.0
  3
*D32
  1

  0
LINE
  5
EF9E
330
EF9C
100
AcDbEntity
  8
0
 62
     0
370
    13
100
AcDbLine
 10
545.745024172491
 20
-55.76171932745894
 30
0.0
 11
514.6523290923133
 21
-55.76171932745893
 31
0.0
  0
LINE
  5
EF9F
330
EF9C
100
AcDbEntity
  8
0
 62
     0
370
    13
100
AcDbLine
 10
538.2186241718057
 20
-18.12971932760934
 30
0.0
 11
514.6523290923133
 21
-18.12971932760932
 31
0.0
  0
LINE
  5
EFA0
330
EF9C
100
AcDbEntity
  8
0
 62
     0
370
    13
100
AcDbLine
 10
519.6523290923133
 20
-48.76171932745894
 30
0.0
 11
519.6523290923133
 21
-25.12971932760933
 31
0.0
  0
SOLID
  5
EFA1
330
EF9C
100
AcDbEntity
  8
0
 62
     0
100
AcDbTrace
 10
518.4856624256467
 20
-48.76171932745894
 30
0.0
 11
520.81899575898
 21
-48.76171932745894
 31
0.0
 12
519.6523290923133
 22
-55.76171932745893
 32
0.0
 13
519.6523290923133
 23
-55.76171932745893
 33
0.0
  0
SOLID
  5
EFA2
330
EF9C
100
AcDbEntity
  8
0
 62
     0
100
AcDbTrace
 10
518.4856624256467
 20
-25.12971932760933
 30
0.0
 11
520.81899575898
 21
-25.12971932760934
 31
0.0
 12
519.6523290923133
 22
-18.12971932760933
 32
0.0
 13
519.6523290923133
 23
-18.12971932760933
 33
0.0
  0
MTEXT
  5
EFA3
330
EF9C
100
AcDbEntity
  8
0
 62
     7
100
AcDbMText
 10
515.0273290923133
 20
-36.94571932753405
 30
0.0
 40
8.0
 41
0.0
 46
0.0
 71
     5
 72
     1
  1
85
  7
DIM
 11
0.0000000000000001
 21
1.0
 31
0.0
 73
     1
 44
1.0
  0
POINT
  5
EFA4
330
EF9C
100
AcDbEntity
  8
DEFPOINTS
 62
     0
100
AcDbPoint
 10
551.7450241724909
 20
-55.76171932745894
 30
0.0
  0
POINT
  5
EFA5
330
EF9C
100
AcDbEntity
  8
DEFPOINTS
 62
     0
100
AcDbPoint
 10
544.2186241718058
 20
-18.12971932760934
 30
0.0
  0
POINT
  5
EFA6
330
EF9C
100
AcDbEntity
  8
DEFPOINTS
 62
     0
100
AcDbPoint
 10
519.6523290923133
 20
-18.12971932760933
 30
0.0
  0
ENDBLK
  5
EFA7
330
EF9C
100
AcDbEntity
  8
0
100
AcDbBlockEnd
  0
BLOCK
  5
EFA9
330
EFA8
100
AcDbEntity
  8
0
100
AcDbBlockBegin
  2
*D33
 70
     1
 10
0.0
 20
0.0
 30
0.0
  3
*D33
  1

  0
LINE
  5
EFAA
330
EFA8
100
AcDbEntity
  8
0
 62
     0
370
    13
100
AcDbLine
 10
844.4350449636644
 20
16.3999997702594
 30
0.0
 11
844.4350449636644
 21
24.2906778839706
 31
0.0
  0
LINE
  5
EFAB
330
EFA8
100
AcDbEntity
  8
0
 62
     0
370
    13
100
AcDbLine
 10
781.4350449636643
 20
16.3999997702594
 30
0.0
 11
781.4350449636643
 21
24.2906778839706
 31
0.0
  0
LINE
  5
EFAC
330
EFA8
100
AcDbEntity
  8
0
 62
     0
370
    13
100
AcDbLine
 10
837.4350449636644
 20
19.2906778839706
 30
0.0
 11
788.4350449636643
 21
19.2906778839706
 31
0.0
  0
SOLID
  5
EFAD
330
EFA8
100
AcDbEntity
  8
0
 62
     0
100
AcDbTrace
 10
837.4350449636644
 20
20.45734455063727
 30
0.0
 11
837.4350449636644
 21
18.12401121730393
 31
0.0
 12
844.4350449636644
 22
19.2906778839706
 32
0.0
 13
844.4350449636644
 23
19.2906778839706
 33
0.0
  0
SOLID
  5
EFAE
330
EFA8
100
AcDbEntity
  8
0
 62
     0
100
AcDbTrace
 10
788.4350449636643
 20
20.45734455063727
 30
0.0
 11
788.4350449636643
 21
18.12401121730393
 31
0.0
 12
781.4350449636643
 22
19.2906778839706
 32
0.0
 13
781.4350449636643
 23
19.2906778839706
 33
0.0
  0
MTEXT
  5
EFAF
330
EFA8
100
AcDbEntity
  8
0
 62
     7
100
AcDbMText
 10
812.9350449636643
 20
23.9156778839706
 30
0.0
 40
8.0
 41
0.0
 46
0.0
 71
     5
 72
     1
  1
100
  7
DIM
 73
     1
 44
1.0
  0
POINT
  5
EFB0
330
EFA8
100
AcDbEntity
  8
DEFPOINTS
 62
     0
100
AcDbPoint
 10
844.4350449636644
 20
10.3999997702594
 30
0.0
  0
POINT
  5
EFB1
330
EFA8
100
AcDbEntity
  8
DEFPOINTS
 62
     0
100
AcDbPoint
 10
781.4350449636643
 20
10.3999997702594
 30
0.0
  0
POINT
  5
EFB2
330
EFA8
100
AcDbEntity
  8
DEFPOINTS
 62
     0
100
AcDbPoint
 10
781.4350449636643
 20
19.2906778839706
 30
0.0
  0
ENDBLK
  5
EFB3
330
EFA8
100
AcDbEntity
  8
0
100
AcDbBlockEnd
  0
BLOCK
  5
EFB5
330
EFB4
100
AcDbEntity
  8
0
100
AcDbBlockBegin
  2
*D34
 70
     1
 10
0.0
 20
0.0
 30
0.0
  3
*D34
  1

  0
LINE
  5
EFB6
330
EFB4
100
AcDbEntity
  8
0
 62
     0
370
    13
100
AcDbLine
 10
784.8850449636642
 20
-52.60000022974063
 30
0.0
 11
766.0174750959472
 21
-52.60000022974062
 31
0.0
  0
LINE
  5
EFB7
330
EFB4
100
AcDbEntity
  8
0
 62
     0
370
    13
100
AcDbLine
 10
775.4350449636643
 20
10.3999997702594
 30
0.0
 11
766.0174750959472
 21
10.3999997702594
 31
0.0
  0
LINE
  5
EFB8
330
EFB4
100
AcDbEntity
  8
0
 62
     0
370
    13
100
AcDbLine
 10
771.0174750959472
 20
-45.60000022974062
 30
0.0
 11
771.0174750959472
 21
3.399999770259401
 31
0.0
  0
SOLID
  5
EFB9
330
EFB4
100
AcDbEntity
  8
0
 62
     0
100
AcDbTrace
 10
769.8508084292805
 20
-45.60000022974062
 30
0.0
 11
772.1841417626138
 21
-45.60000022974062
 31
0.0
 12
771.0174750959472
 22
-52.60000022974062
 32
0.0
 13
771.0174750959472
 23
-52.60000022974062
 33
0.0
  0
SOLID
  5
EFBA
330
EFB4
100
AcDbEntity
  8
0
 62
     0
100
AcDbTrace
 10
769.8508084292805
 20
3.399999770259401
 30
0.0
 11
772.1841417626138
 21
3.399999770259401
 31
0.0
 12
771.0174750959472
 22
10.3999997702594
 32
0.0
 13
771.0174750959472
 23
10.3999997702594
 33
0.0
  0
MTEXT
  5
EFBB
330
EFB4
100
AcDbEntity
  8
0
 62
     7
100
AcDbMText
 10
766.3924750959473
 20
-21.10000022974048
 30
0.0
 40
8.0
 41
0.0
 46
0.0
 71
     5
 72
     1
  1
100
  7
DIM
 11
0.0000000000000001
 21
1.0
 31
0.0
 73
     1
 44
1.0
  0
POINT
  5
EFBC
330
EFB4
100
AcDbEntity
  8
DEFPOINTS
 62
     0
100
AcDbPoint
 10
790.8850449636641
 20
-52.60000022974063
 30
0.0
  0
POINT
  5
EFBD
330
EFB4
100
AcDbEntity
  8
DEFPOINTS
 62
     0
100
AcDbPoint
 10
781.4350449636643
 20
10.3999997702594
 30
0.0
  0
POINT
  5
EFBE
330
EFB4
100
AcDbEntity
  8
DEFPOINTS
 62
     0
100
AcDbPoint
 10
771.0174750959472
 20
10.3999997702594
 30
0.0
  0
ENDBLK
  5
EFBF
330
EFB4
100
AcDbEntity
  8
0
100
AcDbBlockEnd
  0
BLOCK
  5
EFC1
330
EFC0
100
AcDbEntity
  8
0
100
AcDbBlockBegin
  2
*D35
 70
     1
 10
0.0
 20
0.0
 30
0.0
  3
*D35
  1

  0
LINE
  5
EFC2
330
EFC0
100
AcDbEntity
  8
0
 62
     0
370
    13
100
AcDbLine
 10
897.2327166669177
 20
16.3999997702594
 30
0.0
 11
897.2327166669177
 21
24.2906778839706
 31
0.0
  0
LINE
  5
EFC3
330
EFC0
100
AcDbEntity
  8
0
 62
     0
370
    13
100
AcDbLine
 10
878.3327166669177
 20
16.3999997702594
 30
0.0
 11
878.3327166669177
 21
24.2906778839706
 31
0.0
  0
LINE
  5
EFC4
330
EFC0
100
AcDbEntity
  8
0
 62
     0
370
    13
100
AcDbLine
 10
890.2327166669177
 20
19.2906778839706
 30
0.0
 11
885.3327166669176
 21
19.2906778839706
 31
0.0
  0
SOLID
  5
EFC5
330
EFC0
100
AcDbEntity
  8
0
 62
     0
100
AcDbTrace
 10
890.2327166669177
 20
20.45734455063727
 30
0.0
 11
890.2327166669177
 21
18.12401121730393
 31
0.0
 12
897.2327166669177
 22
19.2906778839706
 32
0.0
 13
897.2327166669177
 23
19.2906778839706
 33
0.0
  0
SOLID
  5
EFC6
330
EFC0
100
AcDbEntity
  8
0
 62
     0
100
AcDbTrace
 10
885.3327166669176
 20
20.45734455063727
 30
0.0
 11
885.3327166669176
 21
18.12401121730393
 31
0.0
 12
878.3327166669177
 22
19.2906778839706
 32
0.0
 13
878.3327166669177
 23
19.2906778839706
 33
0.0
  0
MTEXT
  5
EFC7
330
EFC0
100
AcDbEntity
  8
0
 62
     7
100
AcDbMText
 10
887.7827166669177
 20
23.9156778839706
 30
0.0
 40
8.0
 41
0.0
 46
0.0
 71
     5
 72
     1
  1
30
  7
DIM
 73
     1
 44
1.0
  0
POINT
  5
EFC8
330
EFC0
100
AcDbEntity
  8
DEFPOINTS
 62
     0
100
AcDbPoint
 10
897.2327166669177
 20
10.3999997702594
 30
0.0
  0
POINT
  5
EFC9
330
EFC0
100
AcDbEntity
  8
DEFPOINTS
 62
     0
100
AcDbPoint
 10
878.3327166669177
 20
10.3999997702594
 30
0.0
  0
POINT
  5
EFCA
330
EFC0
100
AcDbEntity
  8
DEFPOINTS
 62
     0
100
AcDbPoint
 10
878.3327166669177
 20
19.2906778839706
 30
0.0
  0
ENDBLK
  5
EFCB
330
EFC0
100
AcDbEntity
  8
0
100
AcDbBlockEnd
  0
BLOCK
  5
EFFA
330
EFCC
100
AcDbEntity
  8
0
100
AcDbBlockBegin
  2
A$C2CD672AE
 70
     0
 10
0.0
 20
0.0
 30
0.0
  3
A$C2CD672AE
  1

  0
LINE
  5
EFCD
330
EFCC
100
AcDbEntity
  8
0
  6
Continuous
 62
     7
100
AcDbLine
 10
33.1912942134835
 20
70.12748239744832
 30
0.0
 11
33.1912942134835
 21
58.36748239749482
 31
0.0
  0
LINE
  5
EFCE
330
EFCC
100
AcDbEntity
  8
0
  6
Continuous
 62
     7
100
AcDbLine
 10
40.71769421416877
 20
58.83788239821041
 30
0.0
 11
40.71769421416877
 21
70.12748239744832
 31
0.0
  0
LINE
  5
EFCF
330
EFCC
100
AcDbEntity
  8
0
  6
Continuous
 62
     7
100
AcDbLine
 10
145.7323364885917
 20
70.12748239744832
 30
0.0
 11
33.1912942134835
 21
70.12748239744832
 31
0.0
  0
LINE
  5
EFD0
330
EFCC
100
AcDbEntity
  8
0
  6
Continuous
 62
     7
100
AcDbLine
 10
145.7323364885917
 20
58.83788239821041
 30
0.0
 11
33.1912942134835
 21
58.83788239821041
 31
0.0
  0
LINE
  5
EFD1
330
EFCC
100
AcDbEntity
  8
0
  6
Continuous
 62
     7
100
AcDbLine
 10
35.5432942134737
 20
56.01548239750457
 30
0.0
 11
143.3803364885978
 21
56.01548239750457
 31
0.0
  0
LINE
  5
EFD2
330
EFCC
100
AcDbEntity
  8
0
  6
Continuous
 62
     7
100
AcDbLine
 10
138.2059364890982
 20
58.83788239821041
 30
0.0
 11
138.2059364890982
 21
70.12748239744832
 31
0.0
  0
LINE
  5
EFD3
330
EFCC
100
AcDbEntity
  8
0
  6
Continuous
 62
     7
100
AcDbLine
 10
145.7323364885917
 20
58.36748239749482
 30
0.0
 11
145.7323364885917
 21
70.12748239744832
 31
0.0
  0
LINE
  5
EFD4
330
EFCC
100
AcDbEntity
  8
0
  6
Continuous
 62
     7
100
AcDbLine
 10
33.1912942134835
 20
7.526399605184792
 30
0.0
 11
33.1912942134835
 21
37.63199960554243
 31
0.0
  0
LINE
  5
EFD5
330
EFCC
100
AcDbEntity
  8
0
  6
Continuous
 62
     7
100
AcDbLine
 10
36.01369421418838
 20
7.526399605184792
 30
0.0
 11
36.01369421418838
 21
32.92799960556152
 31
0.0
  0
LINE
  5
EFD6
330
EFCC
100
AcDbEntity
  8
0
  6
Continuous
 62
     7
100
AcDbLine
 10
145.7323364885917
 20
37.63199960554243
 30
0.0
 11
33.1912942134835
 21
37.63199960554243
 31
0.0
  0
LINE
  5
EFD7
330
EFCC
100
AcDbEntity
  8
0
  6
Continuous
 62
     7
100
AcDbLine
 10
145.7323364885917
 20
32.92799960556152
 30
0.0
 11
33.1912942134835
 21
32.92799960556152
 31
0.0
  0
LINE
  5
EFD8
330
EFCC
100
AcDbEntity
  8
0
  6
Continuous
 62
     7
100
AcDbLine
 10
138.2059364890982
 20
2.822399605204338
 30
0.0
 11
40.71769421416877
 21
2.822399605204338
 31
0.0
  0
LINE
  5
EFD9
330
EFCC
100
AcDbEntity
  8
0
  6
Continuous
 62
     7
100
AcDbLine
 10
138.2059364890982
 20
-0.0000003943068236
 30
0.0
 11
40.71769421416877
 21
-0.0000003943068236
 31
0.0
  0
LINE
  5
EFDA
330
EFCC
100
AcDbEntity
  8
0
  6
Continuous
 62
     7
100
AcDbLine
 10
142.9099364890787
 20
32.92799960556152
 30
0.0
 11
142.9099364890787
 21
7.526399605184792
 31
0.0
  0
LINE
  5
EFDB
330
EFCC
100
AcDbEntity
  8
0
  6
Continuous
 62
     7
100
AcDbLine
 10
145.7323364885917
 20
37.63199960554243
 30
0.0
 11
145.7323364885917
 21
7.526399605184792
 31
0.0
  0
ARC
  5
EFDC
330
EFCC
100
AcDbEntity
  8
0
  6
Continuous
 62
     7
100
AcDbCircle
 10
143.3803364885978
 20
58.36748239749482
 30
0.0
 40
2.351999999990592
100
AcDbArc
 50
270.0
 51
0.0
  0
ARC
  5
EFDD
330
EFCC
100
AcDbEntity
  8
0
  6
Continuous
 62
     7
100
AcDbCircle
 10
35.5432942134737
 20
58.36748239749482
 30
0.0
 40
2.351999999990592
100
AcDbArc
 50
180.0
 51
270.0
  0
ARC
  5
EFDE
330
EFCC
100
AcDbEntity
  8
0
  6
Continuous
 62
     7
100
AcDbCircle
 10
138.2059364890982
 20
7.526399605184792
 30
0.0
 40
7.526399999491967
100
AcDbArc
 50
270.0
 51
0.0
  0
ARC
  5
EFDF
330
EFCC
100
AcDbEntity
  8
0
  6
Continuous
 62
     7
100
AcDbCircle
 10
40.71769421416877
 20
7.526399605184792
 30
0.0
 40
7.526399999491967
100
AcDbArc
 50
180.0
 51
270.0
  0
ARC
  5
EFE0
330
EFCC
100
AcDbEntity
  8
0
  6
Continuous
 62
     7
100
AcDbCircle
 10
138.2059364890982
 20
7.526399605184792
 30
0.0
 40
4.703999999981184
100
AcDbArc
 50
270.0
 51
0.0
  0
ARC
  5
EFE1
330
EFCC
100
AcDbEntity
  8
0
  6
Continuous
 62
     7
100
AcDbCircle
 10
40.71769421416877
 20
7.526399605184792
 30
0.0
 40
4.703999999981184
100
AcDbArc
 50
180.0
 51
270.0
  0
DIMENSION
  5
EFE2
330
EFCC
100
AcDbEntity
  8
0
100
AcDbDimension
280
     0
  2
*D30
 10
145.7323364885917
 20
84.12395133076637
 30
0.0
 11
89.46181535103756
 21
90.84418942600448
 31
0.0
 12
-511.0273299583223
 22
55.76171893315176
 32
0.0
  1
200/300
 71
     5
 42
112.5410422751082
 73
     0
 74
     0
 75
     0
  3
ISO-25
100
AcDbAlignedDimension
 13
33.1912942134835
 23
70.12748239744832
 33
0.0
 14
145.7323364885917
 24
70.12748239744832
 34
0.0
100
AcDbRotatedDimension
1001
ACAD
1000
DSTYLE
1002
{
1070
   140
1040
8.0
1070
    42
1040
6.0
1070
    44
1040
5.0
1070
    41
1040
7.0
1070
    49
1040
5.0
1070
    50
1040
1.570796326794896
1070
   345
1005
F
1070
   346
1005
F
1070
   347
1005
F
1002
}
  0
DIMENSION
  5
EFE3
330
EFCC
100
AcDbEntity
  8
0
100
AcDbDimension
280
     0
  2
*D31
 10
8.624999133991082
 20
70.12748239744832
 30
0.0
 11
8.624999133991082
 21
63.41592482279961
 31
0.0
 12
-511.0273299583223
 22
55.76171893315176
 32
0.0
 70
   128
  1
30
 71
     5
 42
13.4231151492976
 73
     0
 74
     0
 75
     0
  3
ISO-25
100
AcDbAlignedDimension
 13
33.88017906412961
 23
56.70436724815072
 33
0.0
 14
33.1912942134835
 24
70.12748239744832
 34
0.0
 50
90.0
100
AcDbRotatedDimension
1001
ACAD
1000
DSTYLE
1002
{
1070
   140
1040
8.0
1070
    42
1040
6.0
1070
    44
1040
5.0
1070
    41
1040
7.0
1070
    49
1040
5.0
1070
    50
1040
1.570796326794896
1070
   345
1005
F
1070
   346
1005
F
1070
   347
1005
F
1002
}
  0
DIMENSION
  5
EFE4
330
EFCC
100
AcDbEntity
  8
0
100
AcDbDimension
280
     0
  2
*D32
 10
8.624999133991082
 20
37.63199960554244
 30
0.0
 11
3.999999133991082
 21
18.81599960561772
 31
0.0
 12
-511.0273299583223
 22
55.76171893315176
 32
0.0
  1
85
 71
     5
 42
37.63199999984961
 73
     0
 74
     0
 75
     0
  3
ISO-25
100
AcDbAlignedDimension
 13
40.71769421416866
 23
-0.0000003943071718
 33
0.0
 14
33.1912942134835
 24
37.63199960554243
 34
0.0
 50
90.0
100
AcDbRotatedDimension
1001
ACAD
1000
DSTYLE
1002
{
1070
   140
1040
8.0
1070
    42
1040
6.0
1070
    44
1040
5.0
1070
    41
1040
7.0
1070
    49
1040
5.0
1070
    50
1040
1.570796326794896
1070
   345
1005
F
1070
   346
1005
F
1070
   347
1005
F
1002
}
  0
LINE
  5
EFE5
330
EFCC
100
AcDbEntity
  8
0
  6
Continuous
 62
     7
100
AcDbLine
 10
270.4077150053421
 20
66.16171870341116
 30
0.0
 11
270.4077150053421
 21
12.61171870341115
 31
0.0
  0
LINE
  5
EFE6
330
EFCC
100
AcDbEntity
  8
0
  6
Continuous
 62
     7
100
AcDbLine
 10
279.8577150053419
 20
3.161718703411139
 30
0.0
 11
323.957715005342
 21
3.161718703411139
 31
0.0
  0
LINE
  5
EFE7
330
EFCC
100
AcDbEntity
  8
0
  6
Continuous
 62
     7
100
AcDbLine
 10
333.4077150053421
 20
12.61171870341115
 30
0.0
 11
333.4077150053421
 21
66.16171870341116
 31
0.0
  0
LINE
  5
EFE8
330
EFCC
100
AcDbEntity
  8
0
  6
Continuous
 62
     7
100
AcDbLine
 10
333.4077150053421
 20
66.16171870341116
 30
0.0
 11
270.4077150053421
 21
66.16171870341116
 31
0.0
  0
LINE
  5
EFE9
330
EFCC
100
AcDbEntity
  8
0
  6
Continuous
 62
     7
100
AcDbLine
 10
386.2053867085955
 20
3.161718703411139
 30
0.0
 11
380.5353867085938
 21
3.161718703411139
 31
0.0
  0
LINE
  5
EFEA
330
EFCC
100
AcDbEntity
  8
0
  6
Continuous
 62
     7
100
AcDbLine
 10
386.2053867085955
 20
12.61171870341115
 30
0.0
 11
380.5353867085938
 21
12.61171870341115
 31
0.0
  0
LINE
  5
EFEB
330
EFCC
100
AcDbEntity
  8
0
  6
Continuous
 62
     7
100
AcDbLine
 10
367.3053867085954
 20
59.86171870341116
 30
0.0
 11
367.3053867085954
 21
66.16171870341116
 31
0.0
  0
LINE
  5
EFEC
330
EFCC
100
AcDbEntity
  8
0
  6
Continuous
 62
     7
100
AcDbLine
 10
370.4553867085955
 20
59.86171870341116
 30
0.0
 11
370.4553867085955
 21
66.16171870341116
 31
0.0
  0
LINE
  5
EFED
330
EFCC
100
AcDbEntity
  8
0
  6
Continuous
 62
     7
100
AcDbLine
 10
380.5353867085938
 20
3.161718703411139
 30
0.0
 11
380.5353867085938
 21
54.82171870341097
 31
0.0
  0
LINE
  5
EFEE
330
EFCC
100
AcDbEntity
  8
0
  6
Continuous
 62
     7
100
AcDbLine
 10
386.2053867085955
 20
66.16171870341116
 30
0.0
 11
386.2053867085955
 21
3.161718703411139
 31
0.0
  0
LINE
  5
EFEF
330
EFCC
100
AcDbEntity
  8
0
  6
Continuous
 62
     7
100
AcDbLine
 10
367.3053867085954
 20
59.86171870341116
 30
0.0
 11
375.4953867085945
 21
59.86171870341116
 31
0.0
  0
LINE
  5
EFF0
330
EFCC
100
AcDbEntity
  8
0
  6
Continuous
 62
     7
100
AcDbLine
 10
367.3053867085954
 20
66.16171870341116
 30
0.0
 11
386.2053867085955
 21
66.16171870341116
 31
0.0
  0
ARC
  5
EFF1
330
EFCC
100
AcDbEntity
  8
0
  6
Continuous
 62
     7
100
AcDbCircle
 10
323.957715005342
 20
12.61171870341115
 30
0.0
 40
9.449999999999999
100
AcDbArc
 50
270.0
 51
0.0
  0
ARC
  5
EFF2
330
EFCC
100
AcDbEntity
  8
0
  6
Continuous
 62
     7
100
AcDbCircle
 10
279.8577150053419
 20
12.61171870341115
 30
0.0
 40
9.449999999999999
100
AcDbArc
 50
180.0
 51
270.0
  0
ARC
  5
EFF3
330
EFCC
100
AcDbEntity
  8
0
  6
Continuous
 62
     7
100
AcDbCircle
 10
375.4953867085945
 20
54.82171870341097
 30
0.0
 40
5.04
100
AcDbArc
 50
0.0
 51
90.0
  0
DIMENSION
  5
EFF4
330
EFCC
100
AcDbEntity
  8
0
100
AcDbDimension
280
     0
  2
*D33
 10
270.4077150053421
 20
75.05239681712237
 30
0.0
 11
301.9077150053421
 21
79.67739681712237
 31
0.0
 12
-511.0273299583223
 22
55.76171893315176
 32
0.0
  1
100
 71
     5
 42
63.0
 73
     0
 74
     0
 75
     0
  3
ISO-25
100
AcDbAlignedDimension
 13
333.4077150053421
 23
66.16171870341116
 33
0.0
 14
270.4077150053421
 24
66.16171870341116
 34
0.0
100
AcDbRotatedDimension
1001
ACAD
1000
DSTYLE
1002
{
1070
   140
1040
8.0
1070
    42
1040
6.0
1070
    44
1040
5.0
1070
    41
1040
7.0
1070
    49
1040
5.0
1070
    50
1040
1.570796326794896
1070
   345
1005
F
1070
   346
1005
F
1070
   347
1005
F
1002
}
  0
DIMENSION
  5
EFF5
330
EFCC
100
AcDbEntity
  8
0
100
AcDbDimension
280
     0
  2
*D34
 10
259.990145137625
 20
66.16171870341116
 30
0.0
 11
255.365145137625
 21
34.66171870341128
 31
0.0
 12
-511.0273299583223
 22
55.76171893315176
 32
0.0
  1
100
 71
     5
 42
63.00000000000003
 73
     0
 74
     0
 75
     0
  3
ISO-25
100
AcDbAlignedDimension
 13
279.8577150053419
 23
3.161718703411139
 33
0.0
 14
270.4077150053421
 24
66.16171870341116
 34
0.0
 50
90.0
100
AcDbRotatedDimension
1001
ACAD
1000
DSTYLE
1002
{
1070
   140
1040
8.0
1070
    42
1040
6.0
1070
    44
1040
5.0
1070
    41
1040
7.0
1070
    49
1040
5.0
1070
    50
1040
1.570796326794896
1070
   345
1005
F
1070
   346
1005
F
1070
   347
1005
F
1002
}
  0
DIMENSION
  5
EFF6
330
EFCC
100
AcDbEntity
  8
0
100
AcDbDimension
280
     0
  2
*D35
 10
367.3053867085954
 20
75.05239681712237
 30
0.0
 11
376.7553867085954
 21
79.67739681712237
 31
0.0
 12
-511.0273299583223
 22
55.76171893315176
 32
0.0
  1
30
 71
     5
 42
18.90000000000009
 73
     0
 74
     0
 75
     0
  3
ISO-25
100
AcDbAlignedDimension
 13
386.2053867085955
 23
66.16171870341116
 33
0.0
 14
367.3053867085954
 24
66.16171870341116
 34
0.0
100
AcDbRotatedDimension
1001
ACAD
1000
DSTYLE
1002
{
1070
   140
1040
8.0
1070
    42
1040
6.0
1070
    44
1040
5.0
1070
    41
1040
7.0
1070
    49
1040
5.0
1070
    50
1040
1.570796326794896
1070
   345
1005
F
1070
   346
1005
F
1070
   347
1005
F
1002
}
  0
CIRCLE
  5
EFF7
330
EFCC
100
AcDbEntity
  8
0
100
AcDbCircle
 10
301.9077150053421
 20
34.66171870341117
 30
0.0
 40
25.2
  0
ENDBLK
  5
EFFB
330
EFCC
100
AcDbEntity
  8
0
100
AcDbBlockEnd
  0
ENDSEC
  0
SECTION
  2
ENTITIES
  0
MTEXT
  5
625
330
2
100
AcDbEntity
  8
0
100
AcDbMText
 10
86.12606231541656
 20
152.914295802184
 30
0.0
 40
3.0
 41
0.0
 46
0.0
 71
     1
 72
     1
  1
\A1;
  7
HZ
 73
     1
 44
1.0
  0
MTEXT
  5
628
330
2
100
AcDbEntity
  8
0
100
AcDbMText
 10
84.7618230133296
 20
154.7311609608424
 30
0.0
 40
3.0
 41
0.0
 46
0.0
 71
     1
 72
     1
  1
\A1;
  7
HZ
 73
     1
 44
1.0
  0
MTEXT
  5
62A
330
2
100
AcDbEntity
  8
0
100
AcDbMText
 10
86.12606231541656
 20
152.8304402213292
 30
0.0
 40
3.0
 41
0.0
 46
0.0
 71
     1
 72
     1
  1
\A1;
  7
HZ
 73
     1
 44
1.0
  0
LINE
  5
EA91
330
2
100
AcDbEntity
  8
粗实线
100
AcDbLine
 10
3461.914921949787
 20
2061.880662421325
 30
0.0
 11
3461.914921949787
 21
2257.580662421325
 31
0.0
  0
LINE
  5
EAF7
330
2
100
AcDbEntity
  8
粗实线
100
AcDbLine
 10
3461.914921949787
 20
2061.880662421325
 30
0.0
 11
3747.114921949787
 21
2061.880662421325
 31
0.0
  0
LINE
  5
EAF8
330
2
100
AcDbEntity
  8
粗实线
100
AcDbLine
 10
3747.114921949787
 20
2061.880662421325
 30
0.0
 11
3747.114921949787
 21
2257.580662421325
 31
0.0
  0
LINE
  5
EAF9
330
2
100
AcDbEntity
  8
粗实线
100
AcDbLine
 10
3717.114921949786
 20
2251.580662421325
 30
0.0
 11
3717.114921949786
 21
2257.580662421325
 31
0.0
  0
LINE
  5
EAFA
330
2
100
AcDbEntity
  8
粗实线
100
AcDbLine
 10
3747.114921949787
 20
2257.580662421325
 30
0.0
 11
3461.914921949787
 21
2257.580662421325
 31
0.0
  0
LINE
  5
EAFB
330
2
100
AcDbEntity
  8
粗实线
100
AcDbLine
 10
3747.114921949787
 20
2251.580662421325
 30
0.0
 11
3717.114921949786
 21
2251.580662421325
 31
0.0
  0
LINE
  5
EAFC
330
2
100
AcDbEntity
  8
粗实线
100
AcDbLine
 10
3461.914921949787
 20
2257.580662421325
 30
0.0
 11
3461.914921949787
 21
2061.880662421325
 31
0.0
  0
LINE
  5
EAFD
330
2
100
AcDbEntity
  8
细实线Ａ
100
AcDbLine
 10
3461.914921949787
 20
2078.533662421325
 30
0.0
 11
3461.914921949787
 21
2061.880662421325
 31
0.0
  0
LINE
  5
EAFE
330
2
100
AcDbEntity
  8
细实线Ａ
100
AcDbLine
 10
3461.914921949787
 20
2071.880662421325
 30
0.0
 11
3461.914921949787
 21
2061.880662421325
 31
0.0
  0
MTEXT
  5
EB1E
330
2
100
AcDbEntity
  8
标注线Ａ
100
AcDbMText
 10
3720.516030780622
 20
2256.300875579786
 30
0.0
 40
3.5
 41
22.5270415496916
 46
0.0
 71
     1
 72
     5
  1
B28002
  7
DIM
 73
     1
 44
1.0
  0
LINE
  5
EB63
330
2
100
AcDbEntity
  8
粗实线
100
AcDbLine
 10
3747.114921949787
 20
2257.580662421325
 30
0.0
 11
3747.114921949787
 21
2061.880662421325
 31
0.0
  0
LINE
  5
EB64
330
2
100
AcDbEntity
  8
细实线Ａ
100
AcDbLine
 10
3747.114921949787
 20
2078.533662421325
 30
0.0
 11
3747.114921949787
 21
2061.880662421325
 31
0.0
  0
LINE
  5
EB65
330
2
100
AcDbEntity
  8
细实线Ａ
100
AcDbLine
 10
3747.114921949787
 20
2071.880662421325
 30
0.0
 11
3747.114921949787
 21
2061.880662421325
 31
0.0
  0
LINE
  5
EED7
330
2
100
AcDbEntity
  8
0
  6
Continuous
 62
     7
100
AcDbLine
 10
3561.83652741827
 20
2185.315075683234
 30
0.0
 11
3561.83652741827
 21
2173.555075683281
 31
0.0
  0
LINE
  5
EED8
330
2
100
AcDbEntity
  8
0
  6
Continuous
 62
     7
100
AcDbLine
 10
3569.362927418956
 20
2174.025475683996
 30
0.0
 11
3569.362927418956
 21
2185.315075683234
 31
0.0
  0
LINE
  5
EED9
330
2
100
AcDbEntity
  8
0
  6
Continuous
 62
     7
100
AcDbLine
 10
3674.377569693378
 20
2185.315075683234
 30
0.0
 11
3561.83652741827
 21
2185.315075683234
 31
0.0
  0
LINE
  5
EEDA
330
2
100
AcDbEntity
  8
0
  6
Continuous
 62
     7
100
AcDbLine
 10
3674.377569693378
 20
2174.025475683996
 30
0.0
 11
3561.83652741827
 21
2174.025475683996
 31
0.0
  0
LINE
  5
EEDB
330
2
100
AcDbEntity
  8
0
  6
Continuous
 62
     7
100
AcDbLine
 10
3564.188527418261
 20
2171.20307568329
 30
0.0
 11
3672.025569693385
 21
2171.20307568329
 31
0.0
  0
LINE
  5
EEDC
330
2
100
AcDbEntity
  8
0
  6
Continuous
 62
     7
100
AcDbLine
 10
3666.851169693885
 20
2174.025475683996
 30
0.0
 11
3666.851169693885
 21
2185.315075683234
 31
0.0
  0
LINE
  5
EEDD
330
2
100
AcDbEntity
  8
0
  6
Continuous
 62
     7
100
AcDbLine
 10
3674.377569693378
 20
2173.555075683281
 30
0.0
 11
3674.377569693378
 21
2185.315075683234
 31
0.0
  0
LINE
  5
EEDE
330
2
100
AcDbEntity
  8
0
  6
Continuous
 62
     7
100
AcDbLine
 10
3561.83652741827
 20
2122.713992890971
 30
0.0
 11
3561.83652741827
 21
2152.819592891328
 31
0.0
  0
LINE
  5
EEDF
330
2
100
AcDbEntity
  8
0
  6
Continuous
 62
     7
100
AcDbLine
 10
3564.658927418975
 20
2122.713992890971
 30
0.0
 11
3564.658927418975
 21
2148.115592891348
 31
0.0
  0
LINE
  5
EEE0
330
2
100
AcDbEntity
  8
0
  6
Continuous
 62
     7
100
AcDbLine
 10
3674.377569693378
 20
2152.819592891328
 30
0.0
 11
3561.83652741827
 21
2152.819592891328
 31
0.0
  0
LINE
  5
EEE1
330
2
100
AcDbEntity
  8
0
  6
Continuous
 62
     7
100
AcDbLine
 10
3674.377569693378
 20
2148.115592891348
 30
0.0
 11
3561.83652741827
 21
2148.115592891348
 31
0.0
  0
LINE
  5
EEE2
330
2
100
AcDbEntity
  8
0
  6
Continuous
 62
     7
100
AcDbLine
 10
3666.851169693885
 20
2118.009992890991
 30
0.0
 11
3569.362927418956
 21
2118.009992890991
 31
0.0
  0
LINE
  5
EEE3
330
2
100
AcDbEntity
  8
0
  6
Continuous
 62
     7
100
AcDbLine
 10
3666.851169693885
 20
2115.187592891479
 30
0.0
 11
3569.362927418956
 21
2115.187592891479
 31
0.0
  0
LINE
  5
EEE4
330
2
100
AcDbEntity
  8
0
  6
Continuous
 62
     7
100
AcDbLine
 10
3671.555169693866
 20
2148.115592891348
 30
0.0
 11
3671.555169693866
 21
2122.713992890971
 31
0.0
  0
LINE
  5
EEE5
330
2
100
AcDbEntity
  8
0
  6
Continuous
 62
     7
100
AcDbLine
 10
3674.377569693378
 20
2152.819592891328
 30
0.0
 11
3674.377569693378
 21
2122.713992890971
 31
0.0
  0
ARC
  5
EEE6
330
2
100
AcDbEntity
  8
0
  6
Continuous
 62
     7
100
AcDbCircle
 10
3672.025569693385
 20
2173.555075683281
 30
0.0
 40
2.351999999990592
100
AcDbArc
 50
270.0
 51
0.0
  0
ARC
  5
EEE7
330
2
100
AcDbEntity
  8
0
  6
Continuous
 62
     7
100
AcDbCircle
 10
3564.188527418261
 20
2173.555075683281
 30
0.0
 40
2.351999999990592
100
AcDbArc
 50
180.0
 51
270.0
  0
ARC
  5
EEE8
330
2
100
AcDbEntity
  8
0
  6
Continuous
 62
     7
100
AcDbCircle
 10
3666.851169693885
 20
2122.713992890971
 30
0.0
 40
7.526399999491967
100
AcDbArc
 50
270.0
 51
0.0
  0
ARC
  5
EEE9
330
2
100
AcDbEntity
  8
0
  6
Continuous
 62
     7
100
AcDbCircle
 10
3569.362927418956
 20
2122.713992890971
 30
0.0
 40
7.526399999491967
100
AcDbArc
 50
180.0
 51
270.0
  0
ARC
  5
EEEA
330
2
100
AcDbEntity
  8
0
  6
Continuous
 62
     7
100
AcDbCircle
 10
3666.851169693885
 20
2122.713992890971
 30
0.0
 40
4.703999999981184
100
AcDbArc
 50
270.0
 51
0.0
  0
ARC
  5
EEEB
330
2
100
AcDbEntity
  8
0
  6
Continuous
 62
     7
100
AcDbCircle
 10
3569.362927418956
 20
2122.713992890971
 30
0.0
 40
4.703999999981184
100
AcDbArc
 50
180.0
 51
270.0
  0
DIMENSION
  5
EF32
330
2
100
AcDbEntity
  8
标注线Ａ
100
AcDbDimension
280
     0
  2
*D27
 10
3674.377569693378
 20
2201.654140225374
 30
0.0
 11
3617.927143715954
 21
2201.654140225374
 31
0.0
 70
   160
  1
200
 71
     5
 42
112.5410422751079
 73
     0
 74
     0
 75
     0
  3
1-1
100
AcDbAlignedDimension
 13
3561.83652741827
 23
2185.315075683234
 33
0.0
 14
3674.377569693378
 24
2185.315075683234
 34
0.0
100
AcDbRotatedDimension
  0
DIMENSION
  5
EF3F
330
2
100
AcDbEntity
  8
标注线Ａ
100
AcDbDimension
280
     0
  2
*D28
 10
3552.321145859431
 20
2171.20307568329
 30
0.0
 11
3552.321145859431
 21
2178.361315074567
 31
0.0
 70
   160
  1
30
 71
     5
 42
14.11199999994369
 73
     0
 74
     0
 75
     0
  3
1-1
100
AcDbAlignedDimension
 13
3561.83652741827
 23
2185.315075683234
 33
0.0
 14
3564.188527418261
 24
2171.20307568329
 34
0.0
 50
90.0
100
AcDbRotatedDimension
  0
DIMENSION
  5
EF4C
330
2
100
AcDbEntity
  8
标注线Ａ
100
AcDbDimension
280
     0
  2
*D29
 10
3552.744577643068
 20
2115.187592891479
 30
0.0
 11
3552.744577643068
 21
2134.430783253017
 31
0.0
 70
   160
  1
85
 71
     5
 42
37.63199999984909
 73
     0
 74
     0
 75
     0
  3
1-1
100
AcDbAlignedDimension
 13
3561.83652741827
 23
2152.819592891328
 33
0.0
 14
3569.362927418956
 24
2115.187592891479
 34
0.0
 50
90.0
100
AcDbRotatedDimension
  0
ENDSEC
  0
SECTION
  2
OBJECTS
  0
DICTIONARY
  5
1A
330
0
100
AcDbDictionary
281
     1
  3
ACAD_CIP_PREVIOUS_PRODUCT_INFO
350
F428
  3
ACAD_COLOR
350
162
  3
ACAD_DETAILVIEWSTYLE
350
F420
  3
ACAD_GROUP
350
18
  3
ACAD_LAYOUT
350
CD
  3
ACAD_MATERIAL
350
161
  3
ACAD_MLEADERSTYLE
350
F41B
  3
ACAD_MLINESTYLE
350
19
  3
ACAD_PLOTSETTINGS
350
CE
  3
ACAD_PLOTSTYLENAME
350
CB
  3
ACAD_SCALELIST
350
F409
  3
ACAD_SECTIONVIEWSTYLE
350
F41D
  3
ACAD_TABLESTYLE
350
192
  3
ACAD_VISUALSTYLE
350
181
  3
AcadDim
350
DC1B
  3
ACDB_RECOMPOSE_DATA
350
F446
  3
AcDbVariableDictionary
350
F3
  3
ASE_INDEX_DICTIONARY
350
7A8
  0
DICTIONARY
  5
114F
330
A
100
AcDbDictionary
280
     1
281
     1
  3
ACAD_LAYERSTATES
360
1150
  0
DICTIONARY
  5
F429
330
4
100
AcDbDictionary
280
     1
281
     1
  3
ADSK_XREC_LAYER_RECONCILED
360
F42A
  0
DICTIONARY
  5
F42B
330
21
100
AcDbDictionary
280
     1
281
     1
  3
ADSK_XREC_LAYER_RECONCILED
360
F42C
  0
DICTIONARY
  5
F42D
330
1F
100
AcDbDictionary
280
     1
281
     1
  3
ADSK_XREC_LAYER_RECONCILED
360
F42E
  0
DICTIONARY
  5
F42F
330
83
100
AcDbDictionary
280
     1
281
     1
  3
ADSK_XREC_LAYER_RECONCILED
360
F430
  0
DICTIONARY
  5
F431
330
84
100
AcDbDictionary
280
     1
281
     1
  3
ADSK_XREC_LAYER_RECONCILED
360
F432
  0
DICTIONARY
  5
F433
330
14F
100
AcDbDictionary
280
     1
281
     1
  3
ADSK_XREC_LAYER_RECONCILED
360
F434
  0
DICTIONARY
  5
F435
330
25E
100
AcDbDictionary
280
     1
281
     1
  3
ADSK_XREC_LAYER_RECONCILED
360
F436
  0
DICTIONARY
  5
3D75
330
3D74
100
AcDbDictionary
280
     1
281
     1
  3
ADSK_XREC_LAYER_RECONCILED
360
3D76
  0
DICTIONARY
  5
3D78
330
3D77
100
AcDbDictionary
280
     1
281
     1
  3
ADSK_XREC_LAYER_RECONCILED
360
3D79
  0
DICTIONARY
  5
3D7B
330
3D7A
100
AcDbDictionary
280
     1
281
     1
  3
ADSK_XREC_LAYER_RECONCILED
360
3D7C
  0
DICTIONARY
  5
3D7E
330
3D7D
100
AcDbDictionary
280
     1
281
     1
  3
ADSK_XREC_LAYER_RECONCILED
360
3D7F
  0
DICTIONARY
  5
F437
330
3D80
100
AcDbDictionary
280
     1
281
     1
  3
ADSK_XREC_LAYER_RECONCILED
360
F438
  0
DICTIONARY
  5
3D82
330
3D81
100
AcDbDictionary
280
     1
281
     1
  3
ADSK_XREC_LAYER_RECONCILED
360
3D83
  0
DICTIONARY
  5
3D85
330
3D84
100
AcDbDictionary
280
     1
281
     1
  3
ADSK_XREC_LAYER_RECONCILED
360
3D86
  0
DICTIONARY
  5
3D88
330
3D87
100
AcDbDictionary
280
     1
281
     1
  3
ADSK_XREC_LAYER_RECONCILED
360
3D89
  0
DICTIONARY
  5
F439
330
B594
100
AcDbDictionary
280
     1
281
     1
  3
ADSK_XREC_LAYER_RECONCILED
360
F43A
  0
DICTIONARY
  5
C67A
330
C679
100
AcDbDictionary
280
     1
281
     1
  3
ADSK_XREC_LAYER_RECONCILED
360
C67B
  0
DICTIONARY
  5
CB82
330
CB81
100
AcDbDictionary
280
     1
281
     1
  3
ADSK_XREC_LAYER_RECONCILED
360
CB83
  0
DICTIONARY
  5
5B7
330
2
100
AcDbDictionary
280
     1
281
     1
  3
ACAD_SORTENTS
360
5B8
  0
DICTIONARY
  5
EFF8
330
EFCC
100
AcDbDictionary
280
     1
281
     1
  3
ACAD_SORTENTS
360
EFF9
  0
XRECORD
  5
F428
102
{ACAD_REACTORS
330
1A
102
}
330
1A
100
AcDbXrecord
280
     1
300
ACD
300
2021
300

  0
DICTIONARY
  5
162
102
{ACAD_REACTORS
330
1A
102
}
330
1A
100
AcDbDictionary
281
     1
  0
DICTIONARY
  5
F420
102
{ACAD_REACTORS
330
1A
102
}
330
1A
100
AcDbDictionary
281
     1
  3
Imperial24
350
F421
  0
DICTIONARY
  5
18
102
{ACAD_REACTORS
330
1A
102
}
330
1A
100
AcDbDictionary
281
     1
  0
DICTIONARY
  5
CD
102
{ACAD_REACTORS
330
1A
102
}
330
1A
100
AcDbDictionary
281
     1
  3
Layout1
350
D0
  3
Model
350
CF
  0
DICTIONARY
  5
161
102
{ACAD_REACTORS
330
1A
102
}
330
1A
100
AcDbDictionary
281
     1
  3
ByBlock
350
17F
  3
ByLayer
350
17E
  3
Global
350
180
  0
DICTIONARY
  5
F41B
102
{ACAD_REACTORS
330
1A
102
}
330
1A
100
AcDbDictionary
281
     1
  3
Standard
350
F41C
  0
DICTIONARY
  5
19
102
{ACAD_REACTORS
330
1A
102
}
330
1A
100
AcDbDictionary
281
     1
  3
STANDARD
350
1C
  0
DICTIONARY
  5
CE
102
{ACAD_REACTORS
330
1A
102
}
330
1A
100
AcDbDictionary
281
     1
  0
ACDBDICTIONARYWDFLT
  5
CB
102
{ACAD_REACTORS
330
1A
102
}
330
1A
100
AcDbDictionary
281
     1
  3
Normal
350
CC
100
AcDbDictionaryWithDefault
340
CC
  0
DICTIONARY
  5
F409
102
{ACAD_REACTORS
330
1A
102
}
330
1A
100
AcDbDictionary
281
     1
  3
A0
350
F40A
  3
A1
350
F40B
  3
A2
350
F40C
  3
A3
350
F40D
  3
A4
350
F40E
  3
A5
350
F40F
  3
A6
350
F410
  3
A7
350
F411
  3
A8
350
F412
  3
A9
350
F413
  3
B0
350
F414
  3
B1
350
F415
  3
B2
350
F416
  3
B3
350
F417
  3
B4
350
F418
  3
B5
350
F419
  3
B6
350
F41A
  0
DICTIONARY
  5
F41D
102
{ACAD_REACTORS
330
1A
102
}
330
1A
100
AcDbDictionary
281
     1
  3
Imperial24
350
F41F
  0
DICTIONARY
  5
192
102
{ACAD_REACTORS
330
1A
102
}
330
1A
100
AcDbDictionary
281
     1
  3
Standard
350
193
  0
DICTIONARY
  5
181
102
{ACAD_REACTORS
330
1A
102
}
330
1A
100
AcDbDictionary
281
     1
  3
2dWireframe
350
187
  3
3D Hidden
350
189
  3
3dWireframe
350
188
  3
Basic
350
186
  3
Brighten
350
18D
  3
ColorChange
350
191
  3
Conceptual
350
18A
  3
Dim
350
18C
  3
EdgeColorOff
350
F408
  3
Facepattern
350
190
  3
Flat
350
182
  3
FlatWithEdges
350
183
  3
Gouraud
350
184
  3
GouraudWithEdges
350
185
  3
Hidden
350
F400
  3
JitterOff
350
F406
  3
Linepattern
350
18F
  3
OverhangOff
350
F407
  3
Realistic
350
18B
  3
Shaded
350
F405
  3
Shaded with edges
350
F404
  3
Shades of Gray
350
F401
  3
Sketchy
350
F402
  3
Thicken
350
18E
  3
Wireframe
350
F3FF
  3
X-Ray
350
F403
  0
XRECORD
  5
DC1B
102
{ACAD_REACTORS
330
1A
102
}
330
1A
100
AcDbXrecord
280
     1
 90
   990106
  3

 60
     0
 61
     0
 62
     1
 63
     3
 64
     0
 65
     0
 66
     0
 67
     3
 68
     1
 69
     0
 70
     0
 71
     0
 72
     0
 40
0.0
170
     0
340
0
  0
XRECORD
  5
F446
102
{ACAD_REACTORS
330
1A
102
}
330
1A
100
AcDbXrecord
280
     1
 90
        1
330
193
  0
DICTIONARY
  5
F3
102
{ACAD_REACTORS
330
1A
102
}
330
1A
100
AcDbDictionary
281
     1
  3
CANNOSCALE
350
F43F
  3
CMLEADERSTYLE
350
F43B
  3
CTABLESTYLE
350
19B
  3
CVIEWDETAILSTYLE
350
F43C
  3
CVIEWSECTIONSTYLE
350
F43D
  3
DIMASSOC
350
F4
  3
LAYEREVAL
350
F441
  3
LAYERNOTIFY
350
F442
  3
LIGHTINGUNITS
350
F440
  3
MSLTSCALE
350
F43E
  0
DICTIONARY
  5
7A8
102
{ACAD_REACTORS
330
1A
102
}
330
1A
100
AcDbDictionary
281
     1
  3
ASEBlockHierarchyIndexRecord
350
7A9
1001
DCO15
1040
1766568451.031
  0
DICTIONARY
  5
1150
102
{ACAD_REACTORS
330
114F
102
}
330
114F
100
AcDbDictionary
281
     1
  0
XRECORD
  5
F42A
102
{ACAD_REACTORS
330
F429
102
}
330
F429
100
AcDbXrecord
280
     1
290
     1
  0
XRECORD
  5
F42C
102
{ACAD_REACTORS
330
F42B
102
}
330
F42B
100
AcDbXrecord
280
     1
290
     1
  0
XRECORD
  5
F42E
102
{ACAD_REACTORS
330
F42D
102
}
330
F42D
100
AcDbXrecord
280
     1
290
     1
  0
XRECORD
  5
F430
102
{ACAD_REACTORS
330
F42F
102
}
330
F42F
100
AcDbXrecord
280
     1
290
     1
  0
XRECORD
  5
F432
102
{ACAD_REACTORS
330
F431
102
}
330
F431
100
AcDbXrecord
280
     1
290
     1
  0
XRECORD
  5
F434
102
{ACAD_REACTORS
330
F433
102
}
330
F433
100
AcDbXrecord
280
     1
290
     1
  0
XRECORD
  5
F436
102
{ACAD_REACTORS
330
F435
102
}
330
F435
100
AcDbXrecord
280
     1
290
     1
  0
XRECORD
  5
3D76
102
{ACAD_REACTORS
330
3D75
102
}
330
3D75
100
AcDbXrecord
280
     1
290
     1
  0
XRECORD
  5
3D79
102
{ACAD_REACTORS
330
3D78
102
}
330
3D78
100
AcDbXrecord
280
     1
290
     1
  0
XRECORD
  5
3D7C
102
{ACAD_REACTORS
330
3D7B
102
}
330
3D7B
100
AcDbXrecord
280
     1
290
     1
  0
XRECORD
  5
3D7F
102
{ACAD_REACTORS
330
3D7E
102
}
330
3D7E
100
AcDbXrecord
280
     1
290
     1
  0
XRECORD
  5
F438
102
{ACAD_REACTORS
330
F437
102
}
330
F437
100
AcDbXrecord
280
     1
290
     1
  0
XRECORD
  5
3D83
102
{ACAD_REACTORS
330
3D82
102
}
330
3D82
100
AcDbXrecord
280
     1
290
     1
  0
XRECORD
  5
3D86
102
{ACAD_REACTORS
330
3D85
102
}
330
3D85
100
AcDbXrecord
280
     1
290
     1
  0
XRECORD
  5
3D89
102
{ACAD_REACTORS
330
3D88
102
}
330
3D88
100
AcDbXrecord
280
     1
290
     1
  0
XRECORD
  5
F43A
102
{ACAD_REACTORS
330
F439
102
}
330
F439
100
AcDbXrecord
280
     1
290
     1
  0
XRECORD
  5
C67B
102
{ACAD_REACTORS
330
C67A
102
}
330
C67A
100
AcDbXrecord
280
     1
290
     1
  0
XRECORD
  5
CB83
102
{ACAD_REACTORS
330
CB82
102
}
330
CB82
100
AcDbXrecord
280
     1
290
     1
  0
SORTENTSTABLE
  5
5B8
102
{ACAD_REACTORS
330
5B7
102
}
330
5B7
100
AcDbSortentsTable
330
2
  0
SORTENTSTABLE
  5
EFF9
102
{ACAD_REACTORS
330
EFF8
102
}
330
EFF8
100
AcDbSortentsTable
330
EFCC
  0
ACDBDETAILVIEWSTYLE
  5
F421
102
{ACAD_XDICTIONARY
360
F449
102
}
102
{ACAD_REACTORS
330
F420
102
}
330
F420
100
AcDbModelDocViewStyle
 70
     0
  3
Imperial24
290
     0
100
AcDbDetailViewStyle
 70
     0
 71
     0
 90
        3
 71
     1
340
C
 62
   256
 40
0.24
340
0
 62
   256
 40
0.24
300

 40
0.36
280
     3
 71
     2
340
5
 90
       25
 62
   256
 71
     3
340
C
 62
   256
 40
0.24
 90
        1
 40
0.75
 90
        1
300
%<\AcVar ViewType \f "%tc1">% %<\AcVar ViewDetailId>%\PSCALE %<\AcVar ViewScale \f "%sn">%
 71
     4
340
5
 90
       25
 62
   256
340
5
 90
       25
 62
   256
280
     0
  0
LAYOUT
  5
D0
102
{ACAD_REACTORS
330
CD
102
}
330
CD
100
AcDbPlotSettings
  1

  2
\\GWL\HP LaserJet 6L
  4

  6

 40
0.0
 41
0.0
 42
0.0
 43
0.0
 44
0.0
 45
0.0
 46
0.0
 47
0.0
 48
0.0
 49
0.0
140
0.0
141
0.0
142
1.0
143
1.0
 70
   688
 72
     0
 73
     0
 74
     5
  7
monochrome.ctb
 75
    16
147
1.0
 76
     0
 77
     2
 78
   300
148
0.0
149
0.0
100
AcDbLayout
  1
Layout1
 70
     0
 71
     1
 10
0.0
 20
0.0
 11
12.0
 21
9.0
 12
0.0
 22
0.0
 32
0.0
 14
1.000000000000000E+20
 24
1.000000000000000E+20
 34
1.000000000000000E+20
 15
-1.000000000000000E+20
 25
-1.000000000000000E+20
 35
-1.000000000000000E+20
146
0.0
 13
0.0
 23
0.0
 33
0.0
 16
1.0
 26
0.0
 36
0.0
 17
0.0
 27
1.0
 37
0.0
 76
     0
330
7
  0
LAYOUT
  5
CF
102
{ACAD_REACTORS
330
CD
102
}
330
CD
100
AcDbPlotSettings
  1

  2
\\Xp-200201010636\HP LaserJet 3100
  4
A4
  6

 40
7.143749713897705
 41
5.873747825622558
 42
7.14373779296875
 43
5.873748779296875
 44
209.9733276367187
 45
296.9683227539062
 46
0.0
 47
0.0207308950510148
 48
1392.57222061569
 49
2061.880662421325
140
1677.77222061569
141
2257.580662421325
142
1.0
143
25.40183794954975
 70
 11956
 72
     0
 73
     1
 74
     4
  7
monochrome.ctb
 75
     0
147
0.0393672301187846
 76
     0
 77
     2
 78
   300
148
-35371.33440363854
149
-52371.76882550165
100
AcDbLayout
  1
Model
 70
     1
 71
     0
 10
0.0
 20
0.0
 11
12.0
 21
9.0
 12
0.0
 22
0.0
 32
0.0
 14
0.0
 24
0.0
 34
0.0
 15
0.0
 25
0.0
 35
0.0
146
0.0
 13
0.0
 23
0.0
 33
0.0
 16
1.0
 26
0.0
 36
0.0
 17
0.0
 27
1.0
 37
0.0
 76
     0
330
2
331
17C
1001
ACAD_PSEXT
1000
\\Xp-200201010636\HP LaserJet 3100
1000
HP LaserJet 3100
1000
\\Xp-200201010636
1000

1070
     0
  0
MATERIAL
  5
17F
102
{ACAD_REACTORS
330
161
102
}
330
161
100
AcDbMaterial
  1
ByBlock
 73
     1
 78
     1
172
     1
176
     1
270
     1
274
     1
 94
       63
  0
MATERIAL
  5
17E
102
{ACAD_REACTORS
330
161
102
}
330
161
100
AcDbMaterial
  1
ByLayer
 73
     1
 78
     1
172
     1
176
     1
270
     1
274
     1
 94
       63
  0
MATERIAL
  5
180
102
{ACAD_REACTORS
330
161
102
}
330
161
100
AcDbMaterial
  1
Global
 73
     1
 78
     1
172
     1
176
     1
270
     1
274
     1
 94
       63
  0
MLEADERSTYLE
  5
F41C
102
{ACAD_REACTORS
330
F41B
102
}
330
F41B
100
AcDbMLeaderStyle
179
     2
170
     2
171
     1
172
     0
 90
        2
 40
0.0
 41
0.0
173
     1
 91
-1056964608
340
E
 92
       -2
290
     1
 42
0.09
291
     1
 43
0.36
  3
Standard
 44
0.18
300

342
C
174
     1
178
     6
175
     1
176
     0
 93
-1056964608
 45
0.18
292
     0
297
     0
 46
0.18
 94
-1056964608
 47
1.0
 49
1.0
140
1.0
293
     1
141
0.0
294
     1
177
     0
142
1.0
295
     0
296
     0
143
0.125
271
     0
272
     9
273
     9
298
     1
  0
MLINESTYLE
  5
1C
102
{ACAD_REACTORS
330
19
102
}
330
19
100
AcDbMlineStyle
  2
STANDARD
 70
     0
  3

 62
   256
 51
90.0
 52
90.0
 71
     2
 49
0.5
 62
   256
  6
BYLAYER
 49
-0.5
 62
   256
  6
BYLAYER
  0
ACDBPLACEHOLDER
  5
CC
102
{ACAD_REACTORS
330
CB
102
}
330
CB
  0
SCALE
  5
F40A
102
{ACAD_REACTORS
330
F409
102
}
330
F409
100
AcDbScale
 70
     0
300
1:1
140
1.0
141
1.0
290
     1
  0
SCALE
  5
F40B
102
{ACAD_REACTORS
330
F409
102
}
330
F409
100
AcDbScale
 70
     0
300
1/128" = 1'-0"
140
0.0078125
141
12.0
290
     0
  0
SCALE
  5
F40C
102
{ACAD_REACTORS
330
F409
102
}
330
F409
100
AcDbScale
 70
     0
300
1/64" = 1'-0"
140
0.015625
141
12.0
290
     0
  0
SCALE
  5
F40D
102
{ACAD_REACTORS
330
F409
102
}
330
F409
100
AcDbScale
 70
     0
300
1/32" = 1'-0"
140
0.03125
141
12.0
290
     0
  0
SCALE
  5
F40E
102
{ACAD_REACTORS
330
F409
102
}
330
F409
100
AcDbScale
 70
     0
300
1/16" = 1'-0"
140
0.0625
141
12.0
290
     0
  0
SCALE
  5
F40F
102
{ACAD_REACTORS
330
F409
102
}
330
F409
100
AcDbScale
 70
     0
300
3/32" = 1'-0"
140
0.09375
141
12.0
290
     0
  0
SCALE
  5
F410
102
{ACAD_REACTORS
330
F409
102
}
330
F409
100
AcDbScale
 70
     0
300
1/8" = 1'-0"
140
0.125
141
12.0
290
     0
  0
SCALE
  5
F411
102
{ACAD_REACTORS
330
F409
102
}
330
F409
100
AcDbScale
 70
     0
300
3/16" = 1'-0"
140
0.1875
141
12.0
290
     0
  0
SCALE
  5
F412
102
{ACAD_REACTORS
330
F409
102
}
330
F409
100
AcDbScale
 70
     0
300
1/4" = 1'-0"
140
0.25
141
12.0
290
     0
  0
SCALE
  5
F413
102
{ACAD_REACTORS
330
F409
102
}
330
F409
100
AcDbScale
 70
     0
300
3/8" = 1'-0"
140
0.375
141
12.0
290
     0
  0
SCALE
  5
F414
102
{ACAD_REACTORS
330
F409
102
}
330
F409
100
AcDbScale
 70
     0
300
1/2" = 1'-0"
140
0.5
141
12.0
290
     0
  0
SCALE
  5
F415
102
{ACAD_REACTORS
330
F409
102
}
330
F409
100
AcDbScale
 70
     0
300
3/4" = 1'-0"
140
0.75
141
12.0
290
     0
  0
SCALE
  5
F416
102
{ACAD_REACTORS
330
F409
102
}
330
F409
100
AcDbScale
 70
     0
300
1" = 1'-0"
140
1.0
141
12.0
290
     0
  0
SCALE
  5
F417
102
{ACAD_REACTORS
330
F409
102
}
330
F409
100
AcDbScale
 70
     0
300
1-1/2" = 1'-0"
140
1.5
141
12.0
290
     0
  0
SCALE
  5
F418
102
{ACAD_REACTORS
330
F409
102
}
330
F409
100
AcDbScale
 70
     0
300
3" = 1'-0"
140
3.0
141
12.0
290
     0
  0
SCALE
  5
F419
102
{ACAD_REACTORS
330
F409
102
}
330
F409
100
AcDbScale
 70
     0
300
6" = 1'-0"
140
6.0
141
12.0
290
     0
  0
SCALE
  5
F41A
102
{ACAD_REACTORS
330
F409
102
}
330
F409
100
AcDbScale
 70
     0
300
1'-0" = 1'-0"
140
12.0
141
12.0
290
     0
  0
ACDBSECTIONVIEWSTYLE
  5
F41F
102
{ACAD_XDICTIONARY
360
F447
102
}
102
{ACAD_REACTORS
330
F41D
102
}
330
F41D
100
AcDbModelDocViewStyle
 70
     0
  3
Imperial24
290
     0
100
AcDbSectionViewStyle
 70
     0
 71
     0
 90
       78
 71
     1
340
C
 62
   256
 40
0.24
340
0
340
0
 62
   256
 40
0.24
300
I, O, Q, S, X, Z
 40
0.48
 90
        3
 40
0.18
 90
        1
 71
     2
340
5
 90
       25
 62
   256
340
5
 90
       50
 62
   256
 40
0.24
 40
0.0
 40
0.24
 71
     3
340
C
 62
   256
 40
0.24
 90
        1
 40
0.75
 90
        1
300
%<\AcVar ViewType \f "%tc1">% %<\AcVar ViewSectionStartId>%-%<\AcVar ViewSectionEndId>%\PSCALE %<\AcVar ViewScale \f "%sn">%
 71
     4
 62
   256
 62
   257
300
ANSI31
 40
1.0
 90
        0
290
     0
290
     0
 90
        6
 40
0.0
 40
1.570796326794896
 40
0.2617993877991494
 40
1.308996938995747
 40
-0.2617993877991494
 40
1.832595714594046
  0
TABLESTYLE
  5
193
102
{ACAD_XDICTIONARY
360
F444
102
}
102
{ACAD_REACTORS
330
192
102
}
330
192
100
AcDbTableStyle
280
     0
  3
Standard
 70
     0
 71
     0
 40
0.06
 41
0.06
280
     0
281
     0
  7
STANDARD
140
0.18
170
     2
 62
     0
 63
     7
283
     0
 90
      512
 91
        0
  1

274
    -2
284
     1
 64
     0
275
    -2
285
     1
 65
     0
276
    -2
286
     1
 66
     0
277
    -2
287
     1
 67
     0
278
    -2
288
     1
 68
     0
279
    -2
289
     1
 69
     0
  7
STANDARD
140
0.25
170
     5
 62
     0
 63
     7
283
     0
 90
      512
 91
        0
  1

274
    -2
284
     1
 64
     0
275
    -2
285
     1
 65
     0
276
    -2
286
     1
 66
     0
277
    -2
287
     1
 67
     0
278
    -2
288
     1
 68
     0
279
    -2
289
     1
 69
     0
  7
STANDARD
140
0.18
170
     5
 62
     0
 63
     7
283
     0
 90
      512
 91
        0
  1

274
    -2
284
     1
 64
     0
275
    -2
285
     1
 65
     0
276
    -2
286
     1
 66
     0
277
    -2
287
     1
 67
     0
278
    -2
288
     1
 68
     0
279
    -2
289
     1
 69
     0
  0
VISUALSTYLE
  5
187
102
{ACAD_REACTORS
330
181
102
}
330
181
100
AcDbVisualStyle
  2
2dWireframe
 70
     4
177
     3
291
     0
 70
    58
 90
        0
176
     1
 90
        2
176
     1
 90
        0
176
     1
 90
        0
176
     1
 40
0.6
176
     1
 40
30.0
176
     1
 62
     7
420
 16777215
176
     1
 90
        1
176
     1
 90
        4
176
     1
 62
     7
176
     1
 62
   257
176
     1
 90
        1
176
     1
 90
        1
176
     1
 40
1.0
176
     1
 90
        0
176
     1
 62
   257
176
     1
 40
1.0
176
     1
 90
        1
176
     1
 90
        6
176
     1
 90
        2
176
     1
 62
     7
176
     1
 90
        5
176
     1
 90
        0
176
     1
 90
        0
176
     1
290
     0
176
     1
 90
        1
176
     1
 40
0.0
176
     1
 90
        0
176
     1
290
     1
176
     1
290
     1
176
     1
290
     0
176
     1
290
     0
176
     1
290
     0
176
     1
290
     0
176
     1
290
     0
176
     1
290
     0
176
     1
290
     0
176
     1
 90
       50
176
     1
 40
0.0
176
     1
 40
1.0
176
     1
 90
        0
176
     1
 62
    18
420
        0
176
     1
 90
       50
176
     1
 90
        3
176
     1
 62
     5
420
      255
176
     1
290
     0
176
     1
 90
       50
176
     1
 90
       50
176
     1
 90
       50
176
     1
290
     0
176
     1
 90
       50
176
     1
 62
   256
176
     0
 40
1.0
176
     0
 90
        2
176
     1
  1
strokes_ogs.tif
176
     1
290
     0
176
     1
 40
1.0
176
     1
 40
1.0
176
     1
1001
ACAD
1000
AcDbSavedByObjectVersion
1070
     0
  0
VISUALSTYLE
  5
189
102
{ACAD_REACTORS
330
181
102
}
330
181
100
AcDbVisualStyle
  2
3D Hidden
 70
     6
177
     3
291
     0
 70
    58
 90
        1
176
     1
 90
        2
176
     1
 90
        2
176
     1
 90
        0
176
     1
 40
0.6
176
     1
 40
30.0
176
     1
 62
     7
420
 16777215
176
     1
 90
        2
176
     1
 90
        2
176
     1
 62
     7
176
     1
 62
   257
176
     1
 90
        2
176
     1
 90
        1
176
     1
 40
40.0
176
     1
 90
        0
176
     1
 62
   257
176
     1
 40
1.0
176
     1
 90
        1
176
     1
 90
        6
176
     1
 90
        2
176
     1
 62
     7
176
     1
 90
        3
176
     1
 90
        0
176
     1
 90
        0
176
     1
290
     0
176
     1
 90
        1
176
     1
 40
0.0
176
     1
 90
        0
176
     1
290
     0
176
     1
290
     1
176
     1
290
     1
176
     1
290
     0
176
     1
290
     0
176
     1
290
     0
176
     1
290
     0
176
     1
290
     0
176
     1
290
     0
176
     1
 90
       50
176
     1
 40
0.0
176
     1
 40
1.0
176
     1
 90
        0
176
     1
 62
    18
420
        0
176
     1
 90
       50
176
     1
 90
        3
176
     1
 62
     5
420
      255
176
     1
290
     0
176
     1
 90
       50
176
     1
 90
       50
176
     1
 90
       50
176
     1
290
     0
176
     1
 90
       50
176
     1
 62
   256
176
     0
 40
1.0
176
     0
 90
        2
176
     1
  1
strokes_ogs.tif
176
     1
290
     0
176
     1
 40
1.0
176
     1
 40
1.0
176
     1
1001
ACAD
1000
AcDbSavedByObjectVersion
1070
     0
  0
VISUALSTYLE
  5
188
102
{ACAD_REACTORS
330
181
102
}
330
181
100
AcDbVisualStyle
  2
3dWireframe
 70
     5
177
     3
291
     0
 70
    58
 90
        0
176
     1
 90
        2
176
     1
 90
        0
176
     1
 90
        0
176
     1
 40
0.6
176
     1
 40
30.0
176
     1
 62
     7
420
 16777215
176
     1
 90
        1
176
     1
 90
        4
176
     1
 62
     7
176
     1
 62
   257
176
     1
 90
        1
176
     1
 90
        1
176
     1
 40
1.0
176
     1
 90
        0
176
     1
 62
   257
176
     1
 40
1.0
176
     1
 90
        1
176
     1
 90
        6
176
     1
 90
        2
176
     1
 62
     7
176
     1
 90
        5
176
     1
 90
        0
176
     1
 90
        0
176
     1
290
     0
176
     1
 90
        1
176
     1
 40
0.0
176
     1
 90
        0
176
     1
290
     0
176
     1
290
     1
176
     1
290
     1
176
     1
290
     0
176
     1
290
     0
176
     1
290
     0
176
     1
290
     0
176
     1
290
     0
176
     1
290
     0
176
     1
 90
       50
176
     1
 40
0.0
176
     1
 40
1.0
176
     1
 90
        0
176
     1
 62
    18
420
        0
176
     1
 90
       50
176
     1
 90
        3
176
     1
 62
     5
420
      255
176
     1
290
     0
176
     1
 90
       50
176
     1
 90
       50
176
     1
 90
       50
176
     1
290
     0
176
     1
 90
       50
176
     1
 62
   256
176
     0
 40
1.0
176
     0
 90
        2
176
     1
  1
strokes_ogs.tif
176
     1
290
     0
176
     1
 40
1.0
176
     1
 40
1.0
176
     1
1001
ACAD
1000
AcDbSavedByObjectVersion
1070
     0
  0
VISUALSTYLE
  5
186
102
{ACAD_REACTORS
330
181
102
}
330
181
100
AcDbVisualStyle
  2
Basic
 70
     7
177
     3
291
     1
 70
    58
 90
        1
176
     1
 90
        0
176
     1
 90
        1
176
     1
 90
        0
176
     1
 40
0.6
176
     1
 40
30.0
176
     1
 62
     7
420
 16777215
176
     1
 90
        0
176
     1
 90
        4
176
     1
 62
     7
176
     1
 62
   257
176
     1
 90
        1
176
     1
 90
        1
176
     1
 40
1.0
176
     1
 90
        8
176
     1
 62
     7
176
     1
 40
1.0
176
     1
 90
        1
176
     1
 90
        6
176
     1
 90
        2
176
     1
 62
     7
176
     1
 90
        5
176
     1
 90
        0
176
     1
 90
        0
176
     1
290
     0
176
     1
 90
        1
176
     1
 40
0.0
176
     1
 90
        0
176
     1
290
     0
176
     1
290
     1
176
     1
290
     1
176
     1
290
     0
176
     1
290
     0
176
     1
290
     0
176
     1
290
     0
176
     1
290
     0
176
     1
290
     0
176
     1
 90
       50
176
     1
 40
0.0
176
     1
 40
1.0
176
     1
 90
        0
176
     1
 62
    18
420
        0
176
     1
 90
       50
176
     1
 90
        3
176
     1
 62
     5
420
      255
176
     1
290
     0
176
     1
 90
       50
176
     1
 90
       50
176
     1
 90
       50
176
     1
290
     0
176
     1
 90
       50
176
     1
 62
   256
176
     0
 40
1.0
176
     0
 90
        2
176
     1
  1
strokes_ogs.tif
176
     1
290
     0
176
     1
 40
1.0
176
     1
 40
1.0
176
     1
1001
ACAD
1000
AcDbSavedByObjectVersion
1070
     0
  0
VISUALSTYLE
  5
18D
102
{ACAD_REACTORS
330
181
102
}
330
181
100
AcDbVisualStyle
  2
Brighten
 70
    12
177
     3
291
     1
 70
    58
 90
        2
176
     1
 90
        2
176
     1
 90
        0
176
     1
 90
        0
176
     1
 40
0.6
176
     1
 40
30.0
176
     1
 62
     7
420
 16777215
176
     1
 90
        1
176
     1
 90
        4
176
     1
 62
     7
176
     1
 62
   257
176
     1
 90
        1
176
     1
 90
        1
176
     1
 40
1.0
176
     1
 90
        8
176
     1
 62
     7
176
     1
 40
1.0
176
     1
 90
        1
176
     1
 90
        6
176
     1
 90
        2
176
     1
 62
     7
176
     1
 90
        5
176
     1
 90
        0
176
     1
 90
        0
176
     1
290
     0
176
     1
 90
        1
176
     1
 40
50.0
176
     1
 90
        0
176
     1
290
     0
176
     1
290
     1
176
     1
290
     1
176
     1
290
     0
176
     1
290
     0
176
     1
290
     0
176
     1
290
     0
176
     1
290
     0
176
     1
290
     0
176
     1
 90
       50
176
     1
 40
0.0
176
     1
 40
1.0
176
     1
 90
        0
176
     1
 62
    18
420
        0
176
     1
 90
       50
176
     1
 90
        3
176
     1
 62
     5
420
      255
176
     1
290
     0
176
     1
 90
       50
176
     1
 90
       50
176
     1
 90
       50
176
     1
290
     0
176
     1
 90
       50
176
     1
 62
   256
176
     0
 40
1.0
176
     0
 90
        2
176
     1
  1
strokes_ogs.tif
176
     1
290
     0
176
     1
 40
1.0
176
     1
 40
1.0
176
     1
1001
ACAD
1000
AcDbSavedByObjectVersion
1070
     0
  0
VISUALSTYLE
  5
191
102
{ACAD_REACTORS
330
181
102
}
330
181
100
AcDbVisualStyle
  2
ColorChange
 70
    16
177
     3
291
     1
 70
    58
 90
        2
176
     1
 90
        2
176
     1
 90
        3
176
     1
 90
        0
176
     1
 40
0.6
176
     1
 40
30.0
176
     1
 62
     8
420
  8421504
176
     1
 90
        1
176
     1
 90
        4
176
     1
 62
     7
176
     1
 62
   257
176
     1
 90
        1
176
     1
 90
        1
176
     1
 40
1.0
176
     1
 90
        8
176
     1
 62
     8
420
  8421504
176
     1
 40
1.0
176
     1
 90
        1
176
     1
 90
        6
176
     1
 90
        2
176
     1
 62
     7
176
     1
 90
        5
176
     1
 90
        0
176
     1
 90
        0
176
     1
290
     0
176
     1
 90
        1
176
     1
 40
0.0
176
     1
 90
        0
176
     1
290
     0
176
     1
290
     1
176
     1
290
     1
176
     1
290
     0
176
     1
290
     0
176
     1
290
     0
176
     1
290
     0
176
     1
290
     0
176
     1
290
     0
176
     1
 90
       50
176
     1
 40
0.0
176
     1
 40
1.0
176
     1
 90
        0
176
     1
 62
    18
420
        0
176
     1
 90
       50
176
     1
 90
        3
176
     1
 62
     5
420
      255
176
     1
290
     0
176
     1
 90
       50
176
     1
 90
       50
176
     1
 90
       50
176
     1
290
     0
176
     1
 90
       50
176
     1
 62
   256
176
     0
 40
1.0
176
     0
 90
        2
176
     1
  1
strokes_ogs.tif
176
     1
290
     0
176
     1
 40
1.0
176
     1
 40
1.0
176
     1
1001
ACAD
1000
AcDbSavedByObjectVersion
1070
     0
  0
VISUALSTYLE
  5
18A
102
{ACAD_REACTORS
330
181
102
}
330
181
100
AcDbVisualStyle
  2
Conceptual
 70
     9
177
     3
291
     0
 70
    58
 90
        3
176
     1
 90
        2
176
     1
 90
        0
176
     1
 90
        0
176
     1
 40
0.6
176
     1
 40
30.0
176
     1
 62
     7
420
 16777215
176
     1
 90
        2
176
     1
 90
        2
176
     1
 62
     7
176
     1
 62
   257
176
     1
 90
        1
176
     1
 90
        1
176
     1
 40
40.0
176
     1
 90
        8
176
     1
 62
     7
176
     1
 40
1.0
176
     1
 90
        1
176
     1
 90
        6
176
     1
 90
        2
176
     1
 62
     7
176
     1
 90
        3
176
     1
 90
        0
176
     1
 90
        0
176
     1
290
     0
176
     1
 90
        1
176
     1
 40
0.0
176
     1
 90
        0
176
     1
290
     0
176
     1
290
     1
176
     1
290
     1
176
     1
290
     0
176
     1
290
     0
176
     1
290
     0
176
     1
290
     0
176
     1
290
     0
176
     1
290
     0
176
     1
 90
       50
176
     1
 40
0.0
176
     1
 40
1.0
176
     1
 90
        0
176
     1
 62
    18
420
        0
176
     1
 90
       50
176
     1
 90
        3
176
     1
 62
     5
420
      255
176
     1
290
     0
176
     1
 90
       50
176
     1
 90
       50
176
     1
 90
       50
176
     1
290
     0
176
     1
 90
       50
176
     1
 62
   256
176
     0
 40
1.0
176
     0
 90
        2
176
     1
  1
strokes_ogs.tif
176
     1
290
     0
176
     1
 40
1.0
176
     1
 40
1.0
176
     1
1001
ACAD
1000
AcDbSavedByObjectVersion
1070
     0
  0
VISUALSTYLE
  5
18C
102
{ACAD_REACTORS
330
181
102
}
330
181
100
AcDbVisualStyle
  2
Dim
 70
    11
177
     3
291
     1
 70
    58
 90
        2
176
     1
 90
        2
176
     1
 90
        0
176
     1
 90
        0
176
     1
 40
0.6
176
     1
 40
30.0
176
     1
 62
     7
420
 16777215
176
     1
 90
        1
176
     1
 90
        4
176
     1
 62
     7
176
     1
 62
   257
176
     1
 90
        1
176
     1
 90
        1
176
     1
 40
1.0
176
     1
 90
        8
176
     1
 62
     7
176
     1
 40
1.0
176
     1
 90
        1
176
     1
 90
        6
176
     1
 90
        2
176
     1
 62
     7
176
     1
 90
        5
176
     1
 90
        0
176
     1
 90
        0
176
     1
290
     0
176
     1
 90
        1
176
     1
 40
-50.0
176
     1
 90
        0
176
     1
290
     0
176
     1
290
     1
176
     1
290
     1
176
     1
290
     0
176
     1
290
     0
176
     1
290
     0
176
     1
290
     0
176
     1
290
     0
176
     1
290
     0
176
     1
 90
       50
176
     1
 40
0.0
176
     1
 40
1.0
176
     1
 90
        0
176
     1
 62
    18
420
        0
176
     1
 90
       50
176
     1
 90
        3
176
     1
 62
     5
420
      255
176
     1
290
     0
176
     1
 90
       50
176
     1
 90
       50
176
     1
 90
       50
176
     1
290
     0
176
     1
 90
       50
176
     1
 62
   256
176
     0
 40
1.0
176
     0
 90
        2
176
     1
  1
strokes_ogs.tif
176
     1
290
     0
176
     1
 40
1.0
176
     1
 40
1.0
176
     1
1001
ACAD
1000
AcDbSavedByObjectVersion
1070
     0
  0
VISUALSTYLE
  5
F408
102
{ACAD_REACTORS
330
181
102
}
330
181
100
AcDbVisualStyle
  2
EdgeColorOff
 70
    22
177
     3
291
     1
 70
    58
 90
        2
176
     0
 90
        2
176
     0
 90
        0
176
     0
 90
        0
176
     0
 40
0.6
176
     0
 40
30.0
176
     0
 62
     7
420
 16777215
176
     0
 90
        1
176
     0
 90
        4
176
     0
 62
     7
176
     0
 62
   257
176
     0
 90
        1
176
     0
 90
        1
176
     0
 40
1.0
176
     0
 90
        8
176
     2
 62
     7
176
     0
 40
1.0
176
     0
 90
        1
176
     0
 90
        6
176
     0
 90
        2
176
     0
 62
     7
176
     0
 90
        5
176
     0
 90
        0
176
     0
 90
        0
176
     0
290
     0
176
     0
 90
        1
176
     0
 40
0.0
176
     0
 90
        0
176
     0
290
     0
176
     0
290
     1
176
     0
290
     1
176
     0
290
     0
176
     0
290
     0
176
     0
290
     0
176
     0
290
     0
176
     0
290
     0
176
     0
290
     0
176
     0
 90
       50
176
     0
 40
0.0
176
     0
 40
1.0
176
     0
 90
        0
176
     0
 62
    18
420
        0
176
     0
 90
       50
176
     0
 90
        3
176
     0
 62
     5
420
      255
176
     0
290
     0
176
     0
 90
       50
176
     0
 90
       50
176
     0
 90
       50
176
     0
290
     0
176
     0
 90
       50
176
     0
 62
   256
176
     0
 40
1.0
176
     0
 90
        2
176
     0
  1
strokes_ogs.tif
176
     0
290
     0
176
     0
 40
1.0
176
     0
 40
1.0
176
     0
1001
ACAD
1000
AcDbSavedByObjectVersion
1070
     0
  0
VISUALSTYLE
  5
190
102
{ACAD_REACTORS
330
181
102
}
330
181
100
AcDbVisualStyle
  2
Facepattern
 70
    15
177
     3
291
     1
 70
    58
 90
        2
176
     1
 90
        2
176
     1
 90
        0
176
     1
 90
        0
176
     1
 40
0.6
176
     1
 40
30.0
176
     1
 62
     7
420
 16777215
176
     1
 90
        1
176
     1
 90
        4
176
     1
 62
     7
176
     1
 62
   257
176
     1
 90
        1
176
     1
 90
        1
176
     1
 40
1.0
176
     1
 90
        8
176
     1
 62
     7
176
     1
 40
1.0
176
     1
 90
        1
176
     1
 90
        6
176
     1
 90
        2
176
     1
 62
     7
176
     1
 90
        5
176
     1
 90
        0
176
     1
 90
        0
176
     1
290
     0
176
     1
 90
        1
176
     1
 40
0.0
176
     1
 90
        0
176
     1
290
     0
176
     1
290
     1
176
     1
290
     1
176
     1
290
     0
176
     1
290
     0
176
     1
290
     0
176
     1
290
     0
176
     1
290
     0
176
     1
290
     0
176
     1
 90
       50
176
     1
 40
0.0
176
     1
 40
1.0
176
     1
 90
        0
176
     1
 62
    18
420
        0
176
     1
 90
       50
176
     1
 90
        3
176
     1
 62
     5
420
      255
176
     1
290
     0
176
     1
 90
       50
176
     1
 90
       50
176
     1
 90
       50
176
     1
290
     0
176
     1
 90
       50
176
     1
 62
   256
176
     0
 40
1.0
176
     0
 90
        2
176
     1
  1
strokes_ogs.tif
176
     1
290
     0
176
     1
 40
1.0
176
     1
 40
1.0
176
     1
1001
ACAD
1000
AcDbSavedByObjectVersion
1070
     0
  0
VISUALSTYLE
  5
182
102
{ACAD_REACTORS
330
181
102
}
330
181
100
AcDbVisualStyle
  2
Flat
 70
     0
177
     3
291
     1
 70
    58
 90
        2
176
     1
 90
        1
176
     1
 90
        1
176
     1
 90
        2
176
     1
 40
0.6
176
     1
 40
30.0
176
     1
 62
     7
420
 16777215
176
     1
 90
        0
176
     1
 90
        4
176
     1
 62
     7
176
     1
 62
   257
176
     1
 90
        1
176
     1
 90
        1
176
     1
 40
1.0
176
     1
 90
        8
176
     1
 62
     7
176
     1
 40
1.0
176
     1
 90
        1
176
     1
 90
        6
176
     1
 90
        2
176
     1
 62
     7
176
     1
 90
        5
176
     1
 90
        0
176
     1
 90
        0
176
     1
290
     0
176
     1
 90
       13
176
     1
 40
0.0
176
     1
 90
        0
176
     1
290
     0
176
     1
290
     1
176
     1
290
     1
176
     1
290
     0
176
     1
290
     0
176
     1
290
     0
176
     1
290
     0
176
     1
290
     0
176
     1
290
     0
176
     1
 90
       50
176
     1
 40
0.0
176
     1
 40
1.0
176
     1
 90
        0
176
     1
 62
    18
420
        0
176
     1
 90
       50
176
     1
 90
        3
176
     1
 62
     5
420
      255
176
     1
290
     0
176
     1
 90
       50
176
     1
 90
       50
176
     1
 90
       50
176
     1
290
     0
176
     1
 90
       50
176
     1
 62
   256
176
     0
 40
1.0
176
     0
 90
        2
176
     1
  1
strokes_ogs.tif
176
     1
290
     0
176
     1
 40
1.0
176
     1
 40
1.0
176
     1
1001
ACAD
1000
AcDbSavedByObjectVersion
1070
     0
  0
VISUALSTYLE
  5
183
102
{ACAD_REACTORS
330
181
102
}
330
181
100
AcDbVisualStyle
  2
FlatWithEdges
 70
     1
177
     3
291
     1
 70
    58
 90
        2
176
     1
 90
        1
176
     1
 90
        1
176
     1
 90
        2
176
     1
 40
0.6
176
     1
 40
30.0
176
     1
 62
     7
420
 16777215
176
     1
 90
        1
176
     1
 90
        4
176
     1
 62
     7
176
     1
 62
   257
176
     1
 90
        1
176
     1
 90
        1
176
     1
 40
1.0
176
     1
 90
        0
176
     1
 62
   257
176
     1
 40
1.0
176
     1
 90
        1
176
     1
 90
        6
176
     1
 90
        2
176
     1
 62
     7
176
     1
 90
        5
176
     1
 90
        0
176
     1
 90
        0
176
     1
290
     0
176
     1
 90
       13
176
     1
 40
0.0
176
     1
 90
        0
176
     1
290
     0
176
     1
290
     1
176
     1
290
     1
176
     1
290
     0
176
     1
290
     0
176
     1
290
     0
176
     1
290
     0
176
     1
290
     0
176
     1
290
     0
176
     1
 90
       50
176
     1
 40
0.0
176
     1
 40
1.0
176
     1
 90
        0
176
     1
 62
    18
420
        0
176
     1
 90
       50
176
     1
 90
        3
176
     1
 62
     5
420
      255
176
     1
290
     0
176
     1
 90
       50
176
     1
 90
       50
176
     1
 90
       50
176
     1
290
     0
176
     1
 90
       50
176
     1
 62
   256
176
     0
 40
1.0
176
     0
 90
        2
176
     1
  1
strokes_ogs.tif
176
     1
290
     0
176
     1
 40
1.0
176
     1
 40
1.0
176
     1
1001
ACAD
1000
AcDbSavedByObjectVersion
1070
     0
  0
VISUALSTYLE
  5
184
102
{ACAD_REACTORS
330
181
102
}
330
181
100
AcDbVisualStyle
  2
Gouraud
 70
     2
177
     3
291
     1
 70
    58
 90
        2
176
     1
 90
        2
176
     1
 90
        1
176
     1
 90
        2
176
     1
 40
0.6
176
     1
 40
30.0
176
     1
 62
     7
420
 16777215
176
     1
 90
        0
176
     1
 90
        4
176
     1
 62
     7
176
     1
 62
   257
176
     1
 90
        1
176
     1
 90
        1
176
     1
 40
1.0
176
     1
 90
        0
176
     1
 62
     7
176
     1
 40
1.0
176
     1
 90
        1
176
     1
 90
        6
176
     1
 90
        2
176
     1
 62
     7
176
     1
 90
        5
176
     1
 90
        0
176
     1
 90
        0
176
     1
290
     0
176
     1
 90
       13
176
     1
 40
0.0
176
     1
 90
        0
176
     1
290
     0
176
     1
290
     1
176
     1
290
     1
176
     1
290
     0
176
     1
290
     0
176
     1
290
     0
176
     1
290
     0
176
     1
290
     0
176
     1
290
     0
176
     1
 90
       50
176
     1
 40
0.0
176
     1
 40
1.0
176
     1
 90
        0
176
     1
 62
    18
420
        0
176
     1
 90
       50
176
     1
 90
        3
176
     1
 62
     5
420
      255
176
     1
290
     0
176
     1
 90
       50
176
     1
 90
       50
176
     1
 90
       50
176
     1
290
     0
176
     1
 90
       50
176
     1
 62
   256
176
     0
 40
1.0
176
     0
 90
        2
176
     1
  1
strokes_ogs.tif
176
     1
290
     0
176
     1
 40
1.0
176
     1
 40
1.0
176
     1
1001
ACAD
1000
AcDbSavedByObjectVersion
1070
     0
  0
VISUALSTYLE
  5
185
102
{ACAD_REACTORS
330
181
102
}
330
181
100
AcDbVisualStyle
  2
GouraudWithEdges
 70
     3
177
     3
291
     1
 70
    58
 90
        2
176
     1
 90
        2
176
     1
 90
        1
176
     1
 90
        2
176
     1
 40
0.6
176
     1
 40
30.0
176
     1
 62
     7
420
 16777215
176
     1
 90
        1
176
     1
 90
        4
176
     1
 62
     7
176
     1
 62
   257
176
     1
 90
        1
176
     1
 90
        1
176
     1
 40
1.0
176
     1
 90
        0
176
     1
 62
   257
176
     1
 40
1.0
176
     1
 90
        1
176
     1
 90
        6
176
     1
 90
        2
176
     1
 62
     7
176
     1
 90
        5
176
     1
 90
        0
176
     1
 90
        0
176
     1
290
     0
176
     1
 90
       13
176
     1
 40
0.0
176
     1
 90
        0
176
     1
290
     0
176
     1
290
     1
176
     1
290
     1
176
     1
290
     0
176
     1
290
     0
176
     1
290
     0
176
     1
290
     0
176
     1
290
     0
176
     1
290
     0
176
     1
 90
       50
176
     1
 40
0.0
176
     1
 40
1.0
176
     1
 90
        0
176
     1
 62
    18
420
        0
176
     1
 90
       50
176
     1
 90
        3
176
     1
 62
     5
420
      255
176
     1
290
     0
176
     1
 90
       50
176
     1
 90
       50
176
     1
 90
       50
176
     1
290
     0
176
     1
 90
       50
176
     1
 62
   256
176
     0
 40
1.0
176
     0
 90
        2
176
     1
  1
strokes_ogs.tif
176
     1
290
     0
176
     1
 40
1.0
176
     1
 40
1.0
176
     1
1001
ACAD
1000
AcDbSavedByObjectVersion
1070
     0
  0
VISUALSTYLE
  5
F400
102
{ACAD_REACTORS
330
181
102
}
330
181
100
AcDbVisualStyle
  2
Hidden
 70
     6
177
     3
291
     0
 70
    58
 90
        1
176
     1
 90
        2
176
     1
 90
        2
176
     1
 90
        0
176
     1
 40
0.6
176
     1
 40
30.0
176
     1
 62
     7
420
 16777215
176
     1
 90
        2
176
     1
 90
        2
176
     1
 62
     7
176
     1
 62
   257
176
     1
 90
        2
176
     1
 90
        1
176
     1
 40
40.0
176
     1
 90
        0
176
     1
 62
   257
176
     1
 40
1.0
176
     1
 90
        1
176
     1
 90
        6
176
     1
 90
        2
176
     1
 62
     7
176
     1
 90
        3
176
     1
 90
        0
176
     1
 90
        0
176
     1
290
     0
176
     1
 90
        1
176
     1
 40
0.0
176
     1
 90
        0
176
     1
290
     0
176
     1
290
     1
176
     1
290
     1
176
     1
290
     0
176
     1
290
     0
176
     1
290
     0
176
     1
290
     0
176
     1
290
     0
176
     1
290
     0
176
     1
 90
       50
176
     1
 40
0.0
176
     1
 40
1.0
176
     1
 90
        0
176
     1
 62
    18
420
        0
176
     1
 90
       50
176
     1
 90
        3
176
     1
 62
     5
420
      255
176
     1
290
     0
176
     1
 90
       50
176
     1
 90
       50
176
     1
 90
       50
176
     1
290
     0
176
     1
 90
       50
176
     1
 62
   256
176
     0
 40
1.0
176
     0
 90
        2
176
     1
  1
strokes_ogs.tif
176
     1
290
     0
176
     1
 40
1.0
176
     1
 40
1.0
176
     1
1001
ACAD
1000
AcDbSavedByObjectVersion
1070
     0
  0
VISUALSTYLE
  5
F406
102
{ACAD_REACTORS
330
181
102
}
330
181
100
AcDbVisualStyle
  2
JitterOff
 70
    20
177
     3
291
     1
 70
    58
 90
        2
176
     0
 90
        2
176
     0
 90
        0
176
     0
 90
        0
176
     0
 40
0.6
176
     0
 40
30.0
176
     0
 62
     7
420
 16777215
176
     0
 90
        1
176
     0
 90
        4
176
     0
 62
     7
176
     0
 62
   257
176
     0
 90
        1
176
     0
 90
        1
176
     0
 40
1.0
176
     0
 90
       10
176
     2
 62
     7
176
     0
 40
1.0
176
     0
 90
        1
176
     0
 90
        6
176
     0
 90
        2
176
     0
 62
     7
176
     0
 90
        5
176
     0
 90
        0
176
     0
 90
        0
176
     0
290
     0
176
     0
 90
        1
176
     0
 40
0.0
176
     0
 90
        0
176
     0
290
     0
176
     0
290
     1
176
     0
290
     1
176
     0
290
     0
176
     0
290
     0
176
     0
290
     0
176
     0
290
     0
176
     0
290
     0
176
     0
290
     0
176
     0
 90
       50
176
     0
 40
0.0
176
     0
 40
1.0
176
     0
 90
        0
176
     0
 62
    18
420
        0
176
     0
 90
       50
176
     0
 90
        3
176
     0
 62
     5
420
      255
176
     0
290
     0
176
     0
 90
       50
176
     0
 90
       50
176
     0
 90
       50
176
     0
290
     0
176
     0
 90
       50
176
     0
 62
   256
176
     0
 40
1.0
176
     0
 90
        2
176
     0
  1
strokes_ogs.tif
176
     0
290
     0
176
     0
 40
1.0
176
     0
 40
1.0
176
     0
1001
ACAD
1000
AcDbSavedByObjectVersion
1070
     0
  0
VISUALSTYLE
  5
18F
102
{ACAD_REACTORS
330
181
102
}
330
181
100
AcDbVisualStyle
  2
Linepattern
 70
    14
177
     3
291
     1
 70
    58
 90
        2
176
     1
 90
        2
176
     1
 90
        0
176
     1
 90
        0
176
     1
 40
0.6
176
     1
 40
30.0
176
     1
 62
     7
420
 16777215
176
     1
 90
        1
176
     1
 90
        4
176
     1
 62
     7
176
     1
 62
   257
176
     1
 90
        7
176
     1
 90
        7
176
     1
 40
1.0
176
     1
 90
        8
176
     1
 62
     7
176
     1
 40
1.0
176
     1
 90
        1
176
     1
 90
        6
176
     1
 90
        2
176
     1
 62
     7
176
     1
 90
        5
176
     1
 90
        0
176
     1
 90
        0
176
     1
290
     0
176
     1
 90
        1
176
     1
 40
0.0
176
     1
 90
        0
176
     1
290
     0
176
     1
290
     1
176
     1
290
     1
176
     1
290
     0
176
     1
290
     0
176
     1
290
     0
176
     1
290
     0
176
     1
290
     0
176
     1
290
     0
176
     1
 90
       50
176
     1
 40
0.0
176
     1
 40
1.0
176
     1
 90
        0
176
     1
 62
    18
420
        0
176
     1
 90
       50
176
     1
 90
        3
176
     1
 62
     5
420
      255
176
     1
290
     0
176
     1
 90
       50
176
     1
 90
       50
176
     1
 90
       50
176
     1
290
     0
176
     1
 90
       50
176
     1
 62
   256
176
     0
 40
1.0
176
     0
 90
        2
176
     1
  1
strokes_ogs.tif
176
     1
290
     0
176
     1
 40
1.0
176
     1
 40
1.0
176
     1
1001
ACAD
1000
AcDbSavedByObjectVersion
1070
     0
  0
VISUALSTYLE
  5
F407
102
{ACAD_REACTORS
330
181
102
}
330
181
100
AcDbVisualStyle
  2
OverhangOff
 70
    21
177
     3
291
     1
 70
    58
 90
        2
176
     0
 90
        2
176
     0
 90
        0
176
     0
 90
        0
176
     0
 40
0.6
176
     0
 40
30.0
176
     0
 62
     7
420
 16777215
176
     0
 90
        1
176
     0
 90
        4
176
     0
 62
     7
176
     0
 62
   257
176
     0
 90
        1
176
     0
 90
        1
176
     0
 40
1.0
176
     0
 90
        9
176
     2
 62
     7
176
     0
 40
1.0
176
     0
 90
        1
176
     0
 90
        6
176
     0
 90
        2
176
     0
 62
     7
176
     0
 90
        5
176
     0
 90
        0
176
     0
 90
        0
176
     0
290
     0
176
     0
 90
        1
176
     0
 40
0.0
176
     0
 90
        0
176
     0
290
     0
176
     0
290
     1
176
     0
290
     1
176
     0
290
     0
176
     0
290
     0
176
     0
290
     0
176
     0
290
     0
176
     0
290
     0
176
     0
290
     0
176
     0
 90
       50
176
     0
 40
0.0
176
     0
 40
1.0
176
     0
 90
        0
176
     0
 62
    18
420
        0
176
     0
 90
       50
176
     0
 90
        3
176
     0
 62
     5
420
      255
176
     0
290
     0
176
     0
 90
       50
176
     0
 90
       50
176
     0
 90
       50
176
     0
290
     0
176
     0
 90
       50
176
     0
 62
   256
176
     0
 40
1.0
176
     0
 90
        2
176
     0
  1
strokes_ogs.tif
176
     0
290
     0
176
     0
 40
1.0
176
     0
 40
1.0
176
     0
1001
ACAD
1000
AcDbSavedByObjectVersion
1070
     0
  0
VISUALSTYLE
  5
18B
102
{ACAD_REACTORS
330
181
102
}
330
181
100
AcDbVisualStyle
  2
Realistic
 70
     8
177
     3
291
     0
 70
    58
 90
        2
176
     1
 90
        2
176
     1
 90
        0
176
     1
 90
        0
176
     1
 40
0.6
176
     1
 40
30.0
176
     1
 62
     7
420
 16777215
176
     1
 90
        1
176
     1
 90
        0
176
     1
 62
     7
176
     1
 62
   257
176
     1
 90
        1
176
     1
 90
        1
176
     1
 40
1.0
176
     1
 90
        8
176
     1
 62
     8
420
  7895160
176
     1
 40
1.0
176
     1
 90
        1
176
     1
 90
        6
176
     1
 90
        2
176
     1
 62
     7
176
     1
 90
        5
176
     1
 90
        0
176
     1
 90
        0
176
     1
290
     0
176
     1
 90
       13
176
     1
 40
0.0
176
     1
 90
        0
176
     1
290
     0
176
     1
290
     1
176
     1
290
     1
176
     1
290
     0
176
     1
290
     0
176
     1
290
     0
176
     1
290
     0
176
     1
290
     0
176
     1
290
     0
176
     1
 90
       50
176
     1
 40
0.0
176
     1
 40
1.0
176
     1
 90
        0
176
     1
 62
    18
420
        0
176
     1
 90
       50
176
     1
 90
        3
176
     1
 62
     5
420
      255
176
     1
290
     0
176
     1
 90
       50
176
     1
 90
       50
176
     1
 90
       50
176
     1
290
     0
176
     1
 90
       50
176
     1
 62
   256
176
     0
 40
1.0
176
     0
 90
        2
176
     1
  1
strokes_ogs.tif
176
     1
290
     0
176
     1
 40
1.0
176
     1
 40
1.0
176
     1
1001
ACAD
1000
AcDbSavedByObjectVersion
1070
     0
  0
VISUALSTYLE
  5
F405
102
{ACAD_REACTORS
330
181
102
}
330
181
100
AcDbVisualStyle
  2
Shaded
 70
    27
177
     3
291
     0
 70
    58
 90
        2
176
     1
 90
        2
176
     1
 90
        1
176
     1
 90
        2
176
     1
 40
0.6
176
     1
 40
30.0
176
     1
 62
     7
420
 16777215
176
     1
 90
        0
176
     1
 90
        4
176
     1
 62
     7
176
     1
 62
   257
176
     1
 90
        1
176
     1
 90
        1
176
     1
 40
1.0
176
     1
 90
        8
176
     1
 62
   257
176
     1
 40
1.0
176
     1
 90
        1
176
     1
 90
        6
176
     1
 90
        2
176
     1
 62
     8
420
  7895160
176
     1
 90
        3
176
     1
 90
        0
176
     1
 90
        0
176
     1
290
     0
176
     1
 90
        5
176
     1
 40
0.0
176
     1
 90
        0
176
     1
290
     0
176
     1
290
     1
176
     1
290
     1
176
     1
290
     0
176
     1
290
     0
176
     1
290
     0
176
     1
290
     0
176
     1
290
     0
176
     1
290
     0
176
     1
 90
       50
176
     1
 40
0.0
176
     1
 40
1.0
176
     1
 90
        0
176
     1
 62
    18
420
        0
176
     1
 90
       50
176
     1
 90
        3
176
     1
 62
     5
420
      255
176
     1
290
     0
176
     1
 90
       50
176
     1
 90
       50
176
     1
 90
       50
176
     1
290
     0
176
     1
 90
       50
176
     1
 62
   256
176
     0
 40
1.0
176
     0
 90
        2
176
     1
  1
strokes_ogs.tif
176
     1
290
     0
176
     1
 40
1.0
176
     1
 40
1.0
176
     1
1001
ACAD
1000
AcDbSavedByObjectVersion
1070
     0
  0
VISUALSTYLE
  5
F404
102
{ACAD_REACTORS
330
181
102
}
330
181
100
AcDbVisualStyle
  2
Shaded with edges
 70
    26
177
     3
291
     0
 70
    58
 90
        2
176
     1
 90
        2
176
     1
 90
        1
176
     1
 90
        2
176
     1
 40
0.6
176
     1
 40
30.0
176
     1
 62
     7
420
 16777215
176
     1
 90
        1
176
     1
 90
        2
176
     1
 62
     7
176
     1
 62
   257
176
     1
 90
        2
176
     1
 90
        1
176
     1
 40
1.0
176
     1
 90
        8
176
     1
 62
   257
176
     1
 40
1.0
176
     1
 90
        1
176
     1
 90
        6
176
     1
 90
        2
176
     1
 62
     7
176
     1
 90
        3
176
     1
 90
        0
176
     1
 90
        0
176
     1
290
     0
176
     1
 90
        5
176
     1
 40
0.0
176
     1
 90
        0
176
     1
290
     0
176
     1
290
     1
176
     1
290
     1
176
     1
290
     0
176
     1
290
     0
176
     1
290
     0
176
     1
290
     0
176
     1
290
     0
176
     1
290
     0
176
     1
 90
       50
176
     1
 40
0.0
176
     1
 40
1.0
176
     1
 90
        0
176
     1
 62
    18
420
        0
176
     1
 90
       50
176
     1
 90
        3
176
     1
 62
     5
420
      255
176
     1
290
     0
176
     1
 90
       50
176
     1
 90
       50
176
     1
 90
       50
176
     1
290
     0
176
     1
 90
       50
176
     1
 62
   256
176
     0
 40
1.0
176
     0
 90
        2
176
     1
  1
strokes_ogs.tif
176
     1
290
     0
176
     1
 40
1.0
176
     1
 40
1.0
176
     1
1001
ACAD
1000
AcDbSavedByObjectVersion
1070
     0
  0
VISUALSTYLE
  5
F401
102
{ACAD_REACTORS
330
181
102
}
330
181
100
AcDbVisualStyle
  2
Shades of Gray
 70
    23
177
     3
291
     0
 70
    58
 90
        2
176
     1
 90
        2
176
     1
 90
        3
176
     1
 90
        0
176
     1
 40
0.6
176
     1
 40
30.0
176
     1
 62
     7
420
 16777215
176
     1
 90
        2
176
     1
 90
        2
176
     1
 62
     7
176
     1
 62
     7
176
     1
 90
        1
176
     1
 90
        1
176
     1
 40
40.0
176
     1
 90
        8
176
     1
 62
     7
176
     1
 40
1.0
176
     1
 90
        1
176
     1
 90
        6
176
     1
 90
        2
176
     1
 62
     7
176
     1
 90
        3
176
     1
 90
        0
176
     1
 90
        0
176
     1
290
     0
176
     1
 90
        1
176
     1
 40
0.0
176
     1
 90
        0
176
     1
290
     0
176
     1
290
     1
176
     1
290
     1
176
     1
290
     0
176
     1
290
     0
176
     1
290
     0
176
     1
290
     0
176
     1
290
     0
176
     1
290
     0
176
     1
 90
       50
176
     1
 40
0.0
176
     1
 40
1.0
176
     1
 90
        0
176
     1
 62
    18
420
        0
176
     1
 90
       50
176
     1
 90
        3
176
     1
 62
     5
420
      255
176
     1
290
     0
176
     1
 90
       50
176
     1
 90
       50
176
     1
 90
       50
176
     1
290
     0
176
     1
 90
       50
176
     1
 62
   256
176
     0
 40
1.0
176
     0
 90
        2
176
     1
  1
strokes_ogs.tif
176
     1
290
     0
176
     1
 40
1.0
176
     1
 40
1.0
176
     1
1001
ACAD
1000
AcDbSavedByObjectVersion
1070
     0
  0
VISUALSTYLE
  5
F402
102
{ACAD_REACTORS
330
181
102
}
330
181
100
AcDbVisualStyle
  2
Sketchy
 70
    24
177
     3
291
     0
 70
    58
 90
        1
176
     1
 90
        2
176
     1
 90
        2
176
     1
 90
        0
176
     1
 40
0.6
176
     1
 40
30.0
176
     1
 62
     7
420
 16777215
176
     1
 90
        2
176
     1
 90
        2
176
     1
 62
     7
176
     1
 62
     7
176
     1
 90
        1
176
     1
 90
        1
176
     1
 40
40.0
176
     1
 90
       11
176
     1
 62
     7
176
     1
 40
1.0
176
     1
 90
        1
176
     1
 90
        6
176
     1
 90
        2
176
     1
 62
     7
176
     1
 90
        6
176
     1
 90
        0
176
     1
 90
        0
176
     1
290
     0
176
     1
 90
        1
176
     1
 40
0.0
176
     1
 90
        0
176
     1
290
     0
176
     1
290
     1
176
     1
290
     1
176
     1
290
     0
176
     1
290
     0
176
     1
290
     0
176
     1
290
     0
176
     1
290
     0
176
     1
290
     0
176
     1
 90
       50
176
     1
 40
0.0
176
     1
 40
1.0
176
     1
 90
        0
176
     1
 62
    18
420
        0
176
     1
 90
       50
176
     1
 90
        3
176
     1
 62
     5
420
      255
176
     1
290
     0
176
     1
 90
       50
176
     1
 90
       50
176
     1
 90
       50
176
     1
290
     0
176
     1
 90
       50
176
     1
 62
   256
176
     0
 40
1.0
176
     0
 90
        2
176
     1
  1
strokes_ogs.tif
176
     1
290
     0
176
     1
 40
1.0
176
     1
 40
1.0
176
     1
1001
ACAD
1000
AcDbSavedByObjectVersion
1070
     0
  0
VISUALSTYLE
  5
18E
102
{ACAD_REACTORS
330
181
102
}
330
181
100
AcDbVisualStyle
  2
Thicken
 70
    13
177
     3
291
     1
 70
    58
 90
        2
176
     1
 90
        2
176
     1
 90
        0
176
     1
 90
        0
176
     1
 40
0.6
176
     1
 40
30.0
176
     1
 62
     7
420
 16777215
176
     1
 90
        1
176
     1
 90
        4
176
     1
 62
     7
176
     1
 62
   257
176
     1
 90
        1
176
     1
 90
        1
176
     1
 40
1.0
176
     1
 90
       12
176
     1
 62
     7
176
     1
 40
1.0
176
     1
 90
        1
176
     1
 90
        6
176
     1
 90
        2
176
     1
 62
     7
176
     1
 90
        5
176
     1
 90
        0
176
     1
 90
        0
176
     1
290
     0
176
     1
 90
        1
176
     1
 40
0.0
176
     1
 90
        0
176
     1
290
     0
176
     1
290
     1
176
     1
290
     1
176
     1
290
     0
176
     1
290
     0
176
     1
290
     0
176
     1
290
     0
176
     1
290
     0
176
     1
290
     0
176
     1
 90
       50
176
     1
 40
0.0
176
     1
 40
1.0
176
     1
 90
        0
176
     1
 62
    18
420
        0
176
     1
 90
       50
176
     1
 90
        3
176
     1
 62
     5
420
      255
176
     1
290
     0
176
     1
 90
       50
176
     1
 90
       50
176
     1
 90
       50
176
     1
290
     0
176
     1
 90
       50
176
     1
 62
   256
176
     0
 40
1.0
176
     0
 90
        2
176
     1
  1
strokes_ogs.tif
176
     1
290
     0
176
     1
 40
1.0
176
     1
 40
1.0
176
     1
1001
ACAD
1000
AcDbSavedByObjectVersion
1070
     0
  0
VISUALSTYLE
  5
F3FF
102
{ACAD_REACTORS
330
181
102
}
330
181
100
AcDbVisualStyle
  2
Wireframe
 70
     5
177
     3
291
     0
 70
    58
 90
        0
176
     1
 90
        2
176
     1
 90
        0
176
     1
 90
        0
176
     1
 40
0.6
176
     1
 40
30.0
176
     1
 62
     7
420
 16777215
176
     1
 90
        1
176
     1
 90
        4
176
     1
 62
     7
176
     1
 62
   257
176
     1
 90
        1
176
     1
 90
        1
176
     1
 40
1.0
176
     1
 90
        0
176
     1
 62
   257
176
     1
 40
1.0
176
     1
 90
        1
176
     1
 90
        6
176
     1
 90
        2
176
     1
 62
     7
176
     1
 90
        3
176
     1
 90
        0
176
     1
 90
        0
176
     1
290
     0
176
     1
 90
        1
176
     1
 40
0.0
176
     1
 90
        0
176
     1
290
     0
176
     1
290
     1
176
     1
290
     1
176
     1
290
     0
176
     1
290
     0
176
     1
290
     0
176
     1
290
     0
176
     1
290
     0
176
     1
290
     0
176
     1
 90
       50
176
     1
 40
0.0
176
     1
 40
1.0
176
     1
 90
        0
176
     1
 62
    18
420
        0
176
     1
 90
       50
176
     1
 90
        3
176
     1
 62
     5
420
      255
176
     1
290
     0
176
     1
 90
       50
176
     1
 90
       50
176
     1
 90
       50
176
     1
290
     0
176
     1
 90
       50
176
     1
 62
   256
176
     0
 40
1.0
176
     0
 90
        2
176
     1
  1
strokes_ogs.tif
176
     1
290
     0
176
     1
 40
1.0
176
     1
 40
1.0
176
     1
1001
ACAD
1000
AcDbSavedByObjectVersion
1070
     0
  0
VISUALSTYLE
  5
F403
102
{ACAD_REACTORS
330
181
102
}
330
181
100
AcDbVisualStyle
  2
X-Ray
 70
    25
177
     3
291
     0
 70
    58
 90
        2
176
     1
 90
        2
176
     1
 90
        1
176
     1
 90
        1
176
     1
 40
0.5
176
     1
 40
30.0
176
     1
 62
     7
420
 16777215
176
     1
 90
        1
176
     1
 90
        0
176
     1
 62
     7
176
     1
 62
   257
176
     1
 90
        1
176
     1
 90
        1
176
     1
 40
1.0
176
     1
 90
        8
176
     1
 62
     7
176
     1
 40
1.0
176
     1
 90
        1
176
     1
 90
        6
176
     1
 90
        2
176
     1
 62
     7
176
     1
 90
        3
176
     1
 90
        0
176
     1
 90
        0
176
     1
290
     0
176
     1
 90
       13
176
     1
 40
0.0
176
     1
 90
        0
176
     1
290
     0
176
     1
290
     1
176
     1
290
     1
176
     1
290
     0
176
     1
290
     0
176
     1
290
     0
176
     1
290
     0
176
     1
290
     0
176
     1
290
     0
176
     1
 90
       50
176
     1
 40
0.0
176
     1
 40
1.0
176
     1
 90
        0
176
     1
 62
    18
420
        0
176
     1
 90
       50
176
     1
 90
        3
176
     1
 62
     5
420
      255
176
     1
290
     0
176
     1
 90
       50
176
     1
 90
       50
176
     1
 90
       50
176
     1
290
     0
176
     1
 90
       50
176
     1
 62
   256
176
     0
 40
1.0
176
     0
 90
        2
176
     1
  1
strokes_ogs.tif
176
     1
290
     0
176
     1
 40
1.0
176
     1
 40
1.0
176
     1
1001
ACAD
1000
AcDbSavedByObjectVersion
1070
     0
  0
DICTIONARYVAR
  5
F43F
102
{ACAD_REACTORS
330
F3
102
}
330
F3
100
DictionaryVariables
280
     0
  1
1:1
  0
DICTIONARYVAR
  5
F43B
102
{ACAD_REACTORS
330
F3
102
}
330
F3
100
DictionaryVariables
280
     0
  1
STANDARD
  0
DICTIONARYVAR
  5
19B
102
{ACAD_REACTORS
330
F3
102
}
330
F3
100
DictionaryVariables
280
     0
  1
STANDARD
  0
DICTIONARYVAR
  5
F43C
102
{ACAD_REACTORS
330
F3
102
}
330
F3
100
DictionaryVariables
280
     0
  1
Imperial24
  0
DICTIONARYVAR
  5
F43D
102
{ACAD_REACTORS
330
F3
102
}
330
F3
100
DictionaryVariables
280
     0
  1
Imperial24
  0
DICTIONARYVAR
  5
F4
102
{ACAD_REACTORS
330
F3
102
}
330
F3
100
DictionaryVariables
280
     0
  1
1
  0
DICTIONARYVAR
  5
F441
102
{ACAD_REACTORS
330
F3
102
}
330
F3
100
DictionaryVariables
280
     0
  1
1
  0
DICTIONARYVAR
  5
F442
102
{ACAD_REACTORS
330
F3
102
}
330
F3
100
DictionaryVariables
280
     0
  1
15
  0
DICTIONARYVAR
  5
F440
102
{ACAD_REACTORS
330
F3
102
}
330
F3
100
DictionaryVariables
280
     0
  1
0
  0
DICTIONARYVAR
  5
F43E
102
{ACAD_REACTORS
330
F3
102
}
330
F3
100
DictionaryVariables
280
     0
  1
0
  0
XRECORD
  5
7A9
102
{ACAD_REACTORS
330
7A8
102
}
330
7A8
100
AcDbXrecord
280
     1
  0
DICTIONARY
  5
F449
330
F421
100
AcDbDictionary
280
     1
281
     1
  3
ACAD_XREC_ROUNDTRIP
360
F44A
  0
DICTIONARY
  5
F447
330
F41F
100
AcDbDictionary
280
     1
281
     1
  3
ACAD_XREC_ROUNDTRIP
360
F448
  0
DICTIONARY
  5
F444
330
193
100
AcDbDictionary
280
     1
281
     1
  3
ACAD_ROUNDTRIP_2008_TABLESTYLE_CELLSTYLEMAP
360
F445
  0
XRECORD
  5
F44A
102
{ACAD_REACTORS
330
F449
102
}
330
F449
100
AcDbXrecord
280
     1
102
DISPLAYNAME
  1
Imperial24
102
FLAGS
 90
        0
  0
XRECORD
  5
F448
102
{ACAD_REACTORS
330
F447
102
}
330
F447
100
AcDbXrecord
280
     1
102
DISPLAYNAME
  1
Imperial24
102
FLAGS
 90
        0
  0
CELLSTYLEMAP
  5
F445
102
{ACAD_REACTORS
330
F444
102
}
330
F444
100
AcDbCellStyleMap
 90
        3
300
CELLSTYLE
  1
TABLEFORMAT_BEGIN
 90
        5
170
     1
 91
        0
 92
    32768
 62
   257
 93
        1
300
CONTENTFORMAT
  1
CONTENTFORMAT_BEGIN
 90
        0
 91
        0
 92
      512
 93
        0
300

 40
0.0
140
1.0
 94
        5
 62
     0
340
C
144
0.25
309
CONTENTFORMAT_END
171
     0
 94
        6
 95
        1
302
GRIDFORMAT
  1
GRIDFORMAT_BEGIN
 90
        0
 91
        1
 62
     0
 92
       -2
340
0
 93
        0
 40
0.045
309
GRIDFORMAT_END
 95
        2
302
GRIDFORMAT
  1
GRIDFORMAT_BEGIN
 90
        0
 91
        1
 62
     0
 92
       -2
340
0
 93
        0
 40
0.045
309
GRIDFORMAT_END
 95
        4
302
GRIDFORMAT
  1
GRIDFORMAT_BEGIN
 90
        0
 91
        1
 62
     0
 92
       -2
340
0
 93
        0
 40
0.045
309
GRIDFORMAT_END
 95
        8
302
GRIDFORMAT
  1
GRIDFORMAT_BEGIN
 90
        0
 91
        1
 62
     0
 92
       -2
340
0
 93
        0
 40
0.045
309
GRIDFORMAT_END
 95
       16
302
GRIDFORMAT
  1
GRIDFORMAT_BEGIN
 90
        0
 91
        1
 62
     0
 92
       -2
340
0
 93
        0
 40
0.045
309
GRIDFORMAT_END
 95
       32
302
GRIDFORMAT
  1
GRIDFORMAT_BEGIN
 90
        0
 91
        1
 62
     0
 92
       -2
340
0
 93
        0
 40
0.045
309
GRIDFORMAT_END
309
TABLEFORMAT_END
  1
CELLSTYLE_BEGIN
 90
        1
 91
        1
300
_TITLE
309
CELLSTYLE_END
300
CELLSTYLE
  1
TABLEFORMAT_BEGIN
 90
        5
170
     1
 91
        0
 92
        0
 62
   257
 93
        1
300
CONTENTFORMAT
  1
CONTENTFORMAT_BEGIN
 90
        0
 91
        0
 92
      512
 93
        0
300

 40
0.0
140
1.0
 94
        5
 62
     0
340
C
144
0.18
309
CONTENTFORMAT_END
171
     0
 94
        6
 95
        1
302
GRIDFORMAT
  1
GRIDFORMAT_BEGIN
 90
        0
 91
        1
 62
     0
 92
       -2
340
0
 93
        0
 40
0.045
309
GRIDFORMAT_END
 95
        2
302
GRIDFORMAT
  1
GRIDFORMAT_BEGIN
 90
        0
 91
        1
 62
     0
 92
       -2
340
0
 93
        0
 40
0.045
309
GRIDFORMAT_END
 95
        4
302
GRIDFORMAT
  1
GRIDFORMAT_BEGIN
 90
        0
 91
        1
 62
     0
 92
       -2
340
0
 93
        0
 40
0.045
309
GRIDFORMAT_END
 95
        8
302
GRIDFORMAT
  1
GRIDFORMAT_BEGIN
 90
        0
 91
        1
 62
     0
 92
       -2
340
0
 93
        0
 40
0.045
309
GRIDFORMAT_END
 95
       16
302
GRIDFORMAT
  1
GRIDFORMAT_BEGIN
 90
        0
 91
        1
 62
     0
 92
       -2
340
0
 93
        0
 40
0.045
309
GRIDFORMAT_END
 95
       32
302
GRIDFORMAT
  1
GRIDFORMAT_BEGIN
 90
        0
 91
        1
 62
     0
 92
       -2
340
0
 93
        0
 40
0.045
309
GRIDFORMAT_END
309
TABLEFORMAT_END
  1
CELLSTYLE_BEGIN
 90
        2
 91
        1
300
_HEADER
309
CELLSTYLE_END
300
CELLSTYLE
  1
TABLEFORMAT_BEGIN
 90
        5
170
     1
 91
        0
 92
        0
 62
   257
 93
        1
300
CONTENTFORMAT
  1
CONTENTFORMAT_BEGIN
 90
        0
 91
        0
 92
      512
 93
        0
300

 40
0.0
140
1.0
 94
        2
 62
     0
340
C
144
0.18
309
CONTENTFORMAT_END
171
     0
 94
        6
 95
        1
302
GRIDFORMAT
  1
GRIDFORMAT_BEGIN
 90
        0
 91
        1
 62
     0
 92
       -2
340
0
 93
        0
 40
0.045
309
GRIDFORMAT_END
 95
        2
302
GRIDFORMAT
  1
GRIDFORMAT_BEGIN
 90
        0
 91
        1
 62
     0
 92
       -2
340
0
 93
        0
 40
0.045
309
GRIDFORMAT_END
 95
        4
302
GRIDFORMAT
  1
GRIDFORMAT_BEGIN
 90
        0
 91
        1
 62
     0
 92
       -2
340
0
 93
        0
 40
0.045
309
GRIDFORMAT_END
 95
        8
302
GRIDFORMAT
  1
GRIDFORMAT_BEGIN
 90
        0
 91
        1
 62
     0
 92
       -2
340
0
 93
        0
 40
0.045
309
GRIDFORMAT_END
 95
       16
302
GRIDFORMAT
  1
GRIDFORMAT_BEGIN
 90
        0
 91
        1
 62
     0
 92
       -2
340
0
 93
        0
 40
0.045
309
GRIDFORMAT_END
 95
       32
302
GRIDFORMAT
  1
GRIDFORMAT_BEGIN
 90
        0
 91
        1
 62
     0
 92
       -2
340
0
 93
        0
 40
0.045
309
GRIDFORMAT_END
309
TABLEFORMAT_END
  1
CELLSTYLE_BEGIN
 90
        3
 91
        2
300
_DATA
309
CELLSTYLE_END
  0
ENDSEC
  0
EOF
